<?xml version="1.0" standalone="no"?>
<!DOCTYPE svg PUBLIC "-//W3C//DTD SVG 1.1//EN" "http://www.w3.org/Graphics/SVG/1.1/DTD/svg11.dtd" >
<svg xmlns="http://www.w3.org/2000/svg" xmlns:xlink="http://www.w3.org/1999/xlink" version="1.1">
<metadata>
Created by FontForge 20170731 at Wed May 31 05:48:22 2017
 By Aleksey,,,
(c) 2015-2017 Apple Inc. All rights reserved.
</metadata>
<defs>
<font id="SFProText-Heavy" horiz-adv-x="1800" >
  <font-face 
    font-family="SF Pro Text"
    font-weight="800"
    font-stretch="normal"
    units-per-em="2048"
    panose-1="0 0 9 0 0 0 0 0 0 0"
    ascent="1638"
    descent="-410"
    x-height="1113"
    cap-height="1443"
    bbox="-602 -569 2836 2255"
    underline-thickness="227"
    underline-position="-829"
    unicode-range="U+0020-1F189"
  />
<missing-glyph horiz-adv-x="2048" 
d="M100 -494v165h1848v-165h-1848zM100 -38v165h1848v-165h-1848zM100 418v165h1848v-165h-1848zM100 873v165h1848v-165h-1848zM100 1329v165h1848v-165h-1848zM100 1785v165h1848v-165h-1848z" />
    <glyph glyph-name="uni2460" unicode="&#x31;&#x20dd;" 
d="M1054 380h-238v486h-13l-152 -103v201l165 108h238v-692zM900 144q156 0 286.5 77t205.5 209.5t75 289.5t-75 289.5t-205.5 209.5t-286.5 77t-286.5 -77t-205.5 -209.5t-75 -289.5t75 -289.5t205.5 -209.5t286.5 -77zM900 -57q-214 0 -392.5 103t-281.5 281.5t-103 392.5
t103 392.5t281.5 281.5t392.5 103t392.5 -103t281.5 -281.5t103 -392.5t-103 -392.5t-281.5 -281.5t-392.5 -103z" />
    <glyph glyph-name="uni2461" unicode="&#x32;&#x20dd;" 
d="M833 832h-219v2q0 110 78 179t210 69q122 0 198.5 -59.5t76.5 -152.5q0 -53 -32 -102t-102 -110l-93 -87v-9h237v-183h-557v146l240 218q41 38 57 60.5t16 46.5q0 23 -14.5 36.5t-37.5 13.5q-27 0 -43 -18t-15 -48v-2zM900 144q156 0 286.5 77t205.5 209.5t75 289.5
t-75 289.5t-205.5 209.5t-286.5 77t-286.5 -77t-205.5 -209.5t-75 -289.5t75 -289.5t205.5 -209.5t286.5 -77zM900 -57q-214 0 -392.5 103t-281.5 281.5t-103 392.5t103 392.5t281.5 281.5t392.5 103t392.5 -103t281.5 -281.5t103 -392.5t-103 -392.5t-281.5 -281.5
t-392.5 -103z" />
    <glyph glyph-name="uni2462" unicode="&#x33;&#x20dd;" 
d="M828 644v169h65q30 0 48.5 15.5t18.5 40.5q0 22 -18.5 35t-48.5 13q-34 0 -54.5 -19.5t-20.5 -50.5h-216q5 113 80 174t215 61q130 -1 207.5 -52t78.5 -136q0 -53 -39.5 -95t-90.5 -49v-11q60 -5 103 -50t44 -112q0 -96 -82.5 -152t-221.5 -56q-136 0 -216.5 64.5
t-81.5 170.5h216q1 -29 22 -47t57 -18t57 14.5t21 37.5q-2 53 -77 53h-66zM900 144q156 0 286.5 77t205.5 209.5t75 289.5t-75 289.5t-205.5 209.5t-286.5 77t-286.5 -77t-205.5 -209.5t-75 -289.5t75 -289.5t205.5 -209.5t286.5 -77zM900 -57q-214 0 -392.5 103
t-281.5 281.5t-103 392.5t103 392.5t281.5 281.5t392.5 103t392.5 -103t281.5 -281.5t103 -392.5t-103 -392.5t-281.5 -281.5t-392.5 -103z" />
    <glyph glyph-name="uni2463" unicode="&#x34;&#x20dd;" 
d="M796 1072h315v-417h97v-172h-97v-103h-191v103h-343v175q76 161 219 414zM776 655h144v258h-19q-83 -161 -125 -257v-1zM900 144q156 0 286.5 77t205.5 209.5t75 289.5t-75 289.5t-205.5 209.5t-286.5 77t-286.5 -77t-205.5 -209.5t-75 -289.5t75 -289.5t205.5 -209.5
t286.5 -77zM900 -57q-214 0 -392.5 103t-281.5 281.5t-103 392.5t103 392.5t281.5 281.5t392.5 103t392.5 -103t281.5 -281.5t103 -392.5t-103 -392.5t-281.5 -281.5t-392.5 -103z" />
    <glyph glyph-name="uni2464" unicode="&#x35;&#x20dd;" 
d="M620 602h218q5 -25 25.5 -39.5t48.5 -14.5q31 0 53.5 22t22.5 56q0 31 -22 52.5t-54 21.5q-49 0 -68 -39h-211l25 418h506v-163h-332l-9 -129h11q16 29 57.5 48t94.5 19q102 0 164.5 -59.5t62.5 -161.5q0 -118 -81 -187.5t-220 -69.5q-129 0 -210 63.5t-82 162.5z
M900 144q156 0 286.5 77t205.5 209.5t75 289.5t-75 289.5t-205.5 209.5t-286.5 77t-286.5 -77t-205.5 -209.5t-75 -289.5t75 -289.5t205.5 -209.5t286.5 -77zM900 -57q-214 0 -392.5 103t-281.5 281.5t-103 392.5t103 392.5t281.5 281.5t392.5 103t392.5 -103t281.5 -281.5
t103 -392.5t-103 -392.5t-281.5 -281.5t-392.5 -103z" />
    <glyph glyph-name="uni2465" unicode="&#x36;&#x20dd;" 
d="M1207 637q0 -122 -83 -195.5t-219 -73.5q-140 0 -227 75t-87 196q0 71 22 134.5t74 137.5q55 82 126 161h275q-107 -114 -173 -210q-15 -19 -30 -45h10q47 29 105 29q88 0 147.5 -60t59.5 -149zM828 623q0 -33 21 -54t55 -21q33 0 54.5 21.5t21.5 53.5t-21.5 53t-54.5 21
q-34 0 -55 -21t-21 -53zM900 144q156 0 286.5 77t205.5 209.5t75 289.5t-75 289.5t-205.5 209.5t-286.5 77t-286.5 -77t-205.5 -209.5t-75 -289.5t75 -289.5t205.5 -209.5t286.5 -77zM900 -57q-214 0 -392.5 103t-281.5 281.5t-103 392.5t103 392.5t281.5 281.5t392.5 103
t392.5 -103t281.5 -281.5t103 -392.5t-103 -392.5t-281.5 -281.5t-392.5 -103z" />
    <glyph glyph-name="uni2466" unicode="&#x37;&#x20dd;" 
d="M620 1069h570v-184l-262 -508h-254l276 501v8h-330v183zM900 144q156 0 286.5 77t205.5 209.5t75 289.5t-75 289.5t-205.5 209.5t-286.5 77t-286.5 -77t-205.5 -209.5t-75 -289.5t75 -289.5t205.5 -209.5t286.5 -77zM900 -57q-214 0 -392.5 103t-281.5 281.5t-103 392.5
t103 392.5t281.5 281.5t392.5 103t392.5 -103t281.5 -281.5t103 -392.5t-103 -392.5t-281.5 -281.5t-392.5 -103z" />
    <glyph glyph-name="uni2467" unicode="&#x38;&#x20dd;" 
d="M900 520q34 0 56.5 21t22.5 53q0 33 -22.5 54.5t-56.5 21.5t-56.5 -22t-22.5 -54t22.5 -53t56.5 -21zM900 807q28 0 46 17.5t18 43.5t-18.5 44t-45.5 18t-45.5 -18t-18.5 -44t18 -43.5t46 -17.5zM900 368q-148 0 -234.5 56t-86.5 152q0 67 43 111t116 53v10
q-130 35 -130 145q0 86 79 136.5t213 50.5t213 -50.5t79 -136.5q0 -111 -130 -145v-10q73 -9 116 -53t43 -110q0 -97 -86.5 -153t-234.5 -56zM900 144q156 0 286.5 77t205.5 209.5t75 289.5t-75 289.5t-205.5 209.5t-286.5 77t-286.5 -77t-205.5 -209.5t-75 -289.5
t75 -289.5t205.5 -209.5t286.5 -77zM900 -57q-214 0 -392.5 103t-281.5 281.5t-103 392.5t103 392.5t281.5 281.5t392.5 103t392.5 -103t281.5 -281.5t103 -392.5t-103 -392.5t-281.5 -281.5t-392.5 -103z" />
    <glyph glyph-name="uni2468" unicode="&#x39;&#x20dd;" 
d="M591 813q0 122 83 196t220 74q139 0 226 -75t87 -196q0 -72 -21.5 -134.5t-73.5 -137.5q-57 -82 -126 -162h-276q99 107 174 211q12 16 29 44l-10 1q-47 -29 -104 -29q-89 0 -148.5 59.5t-59.5 148.5zM971 828q0 32 -21 53t-55 21t-55 -21t-21 -53t21 -53t55 -21t55 21
t21 53zM900 144q156 0 286.5 77t205.5 209.5t75 289.5t-75 289.5t-205.5 209.5t-286.5 77t-286.5 -77t-205.5 -209.5t-75 -289.5t75 -289.5t205.5 -209.5t286.5 -77zM900 -57q-214 0 -392.5 103t-281.5 281.5t-103 392.5t103 392.5t281.5 281.5t392.5 103t392.5 -103
t281.5 -281.5t103 -392.5t-103 -392.5t-281.5 -281.5t-392.5 -103z" />
    <glyph glyph-name="uni24B6" unicode="A&#x20dd;" 
d="M836 687h128l-55 221h-18zM772 407h-231l214 692h290l214 -692h-231l-28 114h-200zM900 144q156 0 286.5 77t205.5 209.5t75 289.5t-75 289.5t-205.5 209.5t-286.5 77t-286.5 -77t-205.5 -209.5t-75 -289.5t75 -289.5t205.5 -209.5t286.5 -77zM900 -57q-214 0 -392.5 103
t-281.5 281.5t-103 392.5t103 392.5t281.5 281.5t392.5 103t392.5 -103t281.5 -281.5t103 -392.5t-103 -392.5t-281.5 -281.5t-392.5 -103z" />
    <glyph glyph-name="uni24B7" unicode="B&#x20dd;" 
d="M614 380v692h369q101 0 159.5 -45.5t58.5 -124.5q0 -59 -37.5 -99.5t-99.5 -49.5v-11q77 -9 120.5 -54t43.5 -119q0 -84 -65.5 -136.5t-168.5 -52.5h-380zM830 929v-131h69q88 0 88 67q0 29 -22 46.5t-57 17.5h-78zM829 676v-144h76q96 0 96 73q0 33 -23.5 52t-64.5 19
h-84zM900 144q156 0 286.5 77t205.5 209.5t75 289.5t-75 289.5t-205.5 209.5t-286.5 77t-286.5 -77t-205.5 -209.5t-75 -289.5t75 -289.5t205.5 -209.5t286.5 -77zM900 -57q-214 0 -392.5 103t-281.5 281.5t-103 392.5t103 392.5t281.5 281.5t392.5 103t392.5 -103
t281.5 -281.5t103 -392.5t-103 -392.5t-281.5 -281.5t-392.5 -103z" />
    <glyph glyph-name="uni24B8" unicode="C&#x20dd;" 
d="M1010 647h214q-5 -123 -94 -201t-229 -78q-151 0 -248 96t-97 261t97 261t248 96q141 0 229.5 -78t93.5 -203h-213q-2 40 -32.5 66.5t-73.5 26.5q-54 0 -85.5 -44t-31.5 -125t31.5 -125t85.5 -44q42 0 72.5 26t32.5 65zM900 144q156 0 286.5 77t205.5 209.5t75 289.5
t-75 289.5t-205.5 209.5t-286.5 77t-286.5 -77t-205.5 -209.5t-75 -289.5t75 -289.5t205.5 -209.5t286.5 -77zM900 -57q-214 0 -392.5 103t-281.5 281.5t-103 392.5t103 392.5t281.5 281.5t392.5 103t392.5 -103t281.5 -281.5t103 -392.5t-103 -392.5t-281.5 -281.5
t-392.5 -103z" />
    <glyph glyph-name="uni24B9" unicode="D&#x20dd;" 
d="M616 1072h320q158 0 241 -89.5t83 -257.5q0 -167 -83 -256t-241 -89h-320v692zM840 894v-337h56q68 0 98 39.5t30 128.5t-30.5 129t-97.5 40h-56zM900 144q156 0 286.5 77t205.5 209.5t75 289.5t-75 289.5t-205.5 209.5t-286.5 77t-286.5 -77t-205.5 -209.5t-75 -289.5
t75 -289.5t205.5 -209.5t286.5 -77zM900 -57q-214 0 -392.5 103t-281.5 281.5t-103 392.5t103 392.5t281.5 281.5t392.5 103t392.5 -103t281.5 -281.5t103 -392.5t-103 -392.5t-281.5 -281.5t-392.5 -103z" />
    <glyph glyph-name="uni24BA" unicode="E&#x20dd;" 
d="M1170 554v-174h-515v692h515v-174h-293v-98h274v-147h-274v-99h293zM900 144q156 0 286.5 77t205.5 209.5t75 289.5t-75 289.5t-205.5 209.5t-286.5 77t-286.5 -77t-205.5 -209.5t-75 -289.5t75 -289.5t205.5 -209.5t286.5 -77zM900 -57q-214 0 -392.5 103t-281.5 281.5
t-103 392.5t103 392.5t281.5 281.5t392.5 103t392.5 -103t281.5 -281.5t103 -392.5t-103 -392.5t-281.5 -281.5t-392.5 -103z" />
    <glyph glyph-name="uni24BB" unicode="F&#x20dd;" 
d="M898 380h-233v692h514v-178h-281v-104h255v-177h-255v-233zM900 144q156 0 286.5 77t205.5 209.5t75 289.5t-75 289.5t-205.5 209.5t-286.5 77t-286.5 -77t-205.5 -209.5t-75 -289.5t75 -289.5t205.5 -209.5t286.5 -77zM900 -57q-214 0 -392.5 103t-281.5 281.5
t-103 392.5t103 392.5t281.5 281.5t392.5 103t392.5 -103t281.5 -281.5t103 -392.5t-103 -392.5t-281.5 -281.5t-392.5 -103z" />
    <glyph glyph-name="uni24BC" unicode="G&#x20dd;" 
d="M1012 616v17h-109v137h323v-121q0 -121 -89 -201t-235 -80q-155 0 -250.5 98.5t-95.5 258.5t95.5 258.5t250.5 98.5q131 0 220 -69t103 -183h-221q-4 36 -30.5 57.5t-68.5 21.5q-53 0 -85 -50.5t-32 -133.5q0 -85 32.5 -138.5t84.5 -53.5q51 0 79 23t28 60zM900 144
q156 0 286.5 77t205.5 209.5t75 289.5t-75 289.5t-205.5 209.5t-286.5 77t-286.5 -77t-205.5 -209.5t-75 -289.5t75 -289.5t205.5 -209.5t286.5 -77zM900 -57q-214 0 -392.5 103t-281.5 281.5t-103 392.5t103 392.5t281.5 281.5t392.5 103t392.5 -103t281.5 -281.5
t103 -392.5t-103 -392.5t-281.5 -281.5t-392.5 -103z" />
    <glyph glyph-name="uni24BD" unicode="H&#x20dd;" 
d="M1219 380h-217v249h-204v-249h-217v692h217v-255h204v255h217v-692zM900 144q156 0 286.5 77t205.5 209.5t75 289.5t-75 289.5t-205.5 209.5t-286.5 77t-286.5 -77t-205.5 -209.5t-75 -289.5t75 -289.5t205.5 -209.5t286.5 -77zM900 -57q-214 0 -392.5 103t-281.5 281.5
t-103 392.5t103 392.5t281.5 281.5t392.5 103t392.5 -103t281.5 -281.5t103 -392.5t-103 -392.5t-281.5 -281.5t-392.5 -103z" />
    <glyph glyph-name="uni24BE" unicode="I&#x20dd;" 
d="M1029 380h-258v692h258v-692zM900 144q156 0 286.5 77t205.5 209.5t75 289.5t-75 289.5t-205.5 209.5t-286.5 77t-286.5 -77t-205.5 -209.5t-75 -289.5t75 -289.5t205.5 -209.5t286.5 -77zM900 -57q-214 0 -392.5 103t-281.5 281.5t-103 392.5t103 392.5t281.5 281.5
t392.5 103t392.5 -103t281.5 -281.5t103 -392.5t-103 -392.5t-281.5 -281.5t-392.5 -103z" />
    <glyph glyph-name="uni24BF" unicode="J&#x20dd;" 
d="M583 639h230q0 -77 60 -77q56 0 56 79v416h239v-422q0 -130 -77.5 -206t-210.5 -76q-137 0 -217 77.5t-80 208.5zM900 144q156 0 286.5 77t205.5 209.5t75 289.5t-75 289.5t-205.5 209.5t-286.5 77t-286.5 -77t-205.5 -209.5t-75 -289.5t75 -289.5t205.5 -209.5
t286.5 -77zM900 -57q-214 0 -392.5 103t-281.5 281.5t-103 392.5t103 392.5t281.5 281.5t392.5 103t392.5 -103t281.5 -281.5t103 -392.5t-103 -392.5t-281.5 -281.5t-392.5 -103z" />
    <glyph glyph-name="uni24C0" unicode="K&#x20dd;" 
d="M1243 1072l-211 -322l215 -370h-260l-129 231l-58 -70v-161h-209v692h209v-258h19l175 258h249zM900 144q156 0 286.5 77t205.5 209.5t75 289.5t-75 289.5t-205.5 209.5t-286.5 77t-286.5 -77t-205.5 -209.5t-75 -289.5t75 -289.5t205.5 -209.5t286.5 -77zM900 -57
q-214 0 -392.5 103t-281.5 281.5t-103 392.5t103 392.5t281.5 281.5t392.5 103t392.5 -103t281.5 -281.5t103 -392.5t-103 -392.5t-281.5 -281.5t-392.5 -103z" />
    <glyph glyph-name="uni24C1" unicode="L&#x20dd;" 
d="M1189 590v-195h-510v692h242v-497h268zM900 144q156 0 286.5 77t205.5 209.5t75 289.5t-75 289.5t-205.5 209.5t-286.5 77t-286.5 -77t-205.5 -209.5t-75 -289.5t75 -289.5t205.5 -209.5t286.5 -77zM900 -57q-214 0 -392.5 103t-281.5 281.5t-103 392.5t103 392.5
t281.5 281.5t392.5 103t392.5 -103t281.5 -281.5t103 -392.5t-103 -392.5t-281.5 -281.5t-392.5 -103z" />
    <glyph glyph-name="uni24C2" unicode="M&#x20dd;" 
d="M714 380h-170v692h221l133 -416h6l133 416h220v-692h-169v398h-20l-119 -352h-99l-116 352h-20v-398zM900 144q156 0 286.5 77t205.5 209.5t75 289.5t-75 289.5t-205.5 209.5t-286.5 77t-286.5 -77t-205.5 -209.5t-75 -289.5t75 -289.5t205.5 -209.5t286.5 -77zM900 -57
q-214 0 -392.5 103t-281.5 281.5t-103 392.5t103 392.5t281.5 281.5t392.5 103t392.5 -103t281.5 -281.5t103 -392.5t-103 -392.5t-281.5 -281.5t-392.5 -103z" />
    <glyph glyph-name="uni24C3" unicode="N&#x20dd;" 
d="M785 380h-195v692h160l248 -339h17v339h195v-692h-159l-248 345h-18v-345zM900 144q156 0 286.5 77t205.5 209.5t75 289.5t-75 289.5t-205.5 209.5t-286.5 77t-286.5 -77t-205.5 -209.5t-75 -289.5t75 -289.5t205.5 -209.5t286.5 -77zM900 -57q-214 0 -392.5 103
t-281.5 281.5t-103 392.5t103 392.5t281.5 281.5t392.5 103t392.5 -103t281.5 -281.5t103 -392.5t-103 -392.5t-281.5 -281.5t-392.5 -103z" />
    <glyph glyph-name="uni24C4" unicode="O&#x20dd;" 
d="M900 556q49 0 81 43.5t32 125.5t-32 125.5t-81 43.5t-81 -43.5t-32 -125.5t32 -125.5t81 -43.5zM900 368q-151 0 -248.5 95.5t-97.5 261.5t97.5 261.5t248.5 95.5t248.5 -95.5t97.5 -261.5t-97.5 -261.5t-248.5 -95.5zM900 144q156 0 286.5 77t205.5 209.5t75 289.5
t-75 289.5t-205.5 209.5t-286.5 77t-286.5 -77t-205.5 -209.5t-75 -289.5t75 -289.5t205.5 -209.5t286.5 -77zM900 -57q-214 0 -392.5 103t-281.5 281.5t-103 392.5t103 392.5t281.5 281.5t392.5 103t392.5 -103t281.5 -281.5t103 -392.5t-103 -392.5t-281.5 -281.5
t-392.5 -103z" />
    <glyph glyph-name="uni24C5" unicode="P&#x20dd;" 
d="M977 1072q121 0 193.5 -72.5t72.5 -191.5q0 -117 -73 -187.5t-196 -70.5h-89v-170h-240v692h332zM1016 808q0 89 -81 89h-67v-177h67q81 0 81 88zM900 144q156 0 286.5 77t205.5 209.5t75 289.5t-75 289.5t-205.5 209.5t-286.5 77t-286.5 -77t-205.5 -209.5t-75 -289.5
t75 -289.5t205.5 -209.5t286.5 -77zM900 -57q-214 0 -392.5 103t-281.5 281.5t-103 392.5t103 392.5t281.5 281.5t392.5 103t392.5 -103t281.5 -281.5t103 -392.5t-103 -392.5t-281.5 -281.5t-392.5 -103z" />
    <glyph glyph-name="uni24C6" unicode="Q&#x20dd;" 
d="M1229 324h-223l-24 53q-39 -9 -82 -9q-151 0 -248.5 95.5t-97.5 261.5t97.5 261.5t248.5 95.5t248.5 -95.5t97.5 -261.5q0 -173 -106 -271zM900 556q10 0 21 3l-38 89h101l11 -14q18 38 18 91q0 82 -32 125.5t-81 43.5t-81 -43.5t-32 -125.5t32 -125.5t81 -43.5zM900 144
q156 0 286.5 77t205.5 209.5t75 289.5t-75 289.5t-205.5 209.5t-286.5 77t-286.5 -77t-205.5 -209.5t-75 -289.5t75 -289.5t205.5 -209.5t286.5 -77zM900 -57q-214 0 -392.5 103t-281.5 281.5t-103 392.5t103 392.5t281.5 281.5t392.5 103t392.5 -103t281.5 -281.5
t103 -392.5t-103 -392.5t-281.5 -281.5t-392.5 -103z" />
    <glyph glyph-name="uni24C7" unicode="R&#x20dd;" 
d="M936 1072q138 0 213.5 -60t75.5 -169q0 -72 -36 -122.5t-100 -70.5l151 -270h-241l-111 228h-68v-228h-211v692h327zM820 756h92q37 0 58.5 19t21.5 54q0 36 -20.5 55t-58.5 19h-93v-147zM900 144q156 0 286.5 77t205.5 209.5t75 289.5t-75 289.5t-205.5 209.5t-286.5 77
t-286.5 -77t-205.5 -209.5t-75 -289.5t75 -289.5t205.5 -209.5t286.5 -77zM900 -57q-214 0 -392.5 103t-281.5 281.5t-103 392.5t103 392.5t281.5 281.5t392.5 103t392.5 -103t281.5 -281.5t103 -392.5t-103 -392.5t-281.5 -281.5t-392.5 -103z" />
    <glyph glyph-name="uni24C8" unicode="S&#x20dd;" 
d="M591 587h222q4 -25 28.5 -40t62.5 -15q40 0 63.5 14.5t23.5 39.5q0 21 -21 31.5t-84 20.5l-77 12q-101 15 -155 67t-54 135q0 104 81.5 166.5t217.5 62.5q125 0 205.5 -57t89.5 -154h-216q-11 51 -79 51q-34 0 -54.5 -13t-20.5 -36q0 -21 21.5 -33t77.5 -19l87 -14
q201 -30 201 -201q0 -108 -85 -172t-228 -64q-139 0 -220.5 57.5t-86.5 160.5zM900 144q156 0 286.5 77t205.5 209.5t75 289.5t-75 289.5t-205.5 209.5t-286.5 77t-286.5 -77t-205.5 -209.5t-75 -289.5t75 -289.5t205.5 -209.5t286.5 -77zM900 -57q-214 0 -392.5 103
t-281.5 281.5t-103 392.5t103 392.5t281.5 281.5t392.5 103t392.5 -103t281.5 -281.5t103 -392.5t-103 -392.5t-281.5 -281.5t-392.5 -103z" />
    <glyph glyph-name="uni24C9" unicode="T&#x20dd;" 
d="M1021 356h-242v501h-187v191h616v-191h-187v-501zM900 144q156 0 286.5 77t205.5 209.5t75 289.5t-75 289.5t-205.5 209.5t-286.5 77t-286.5 -77t-205.5 -209.5t-75 -289.5t75 -289.5t205.5 -209.5t286.5 -77zM900 -57q-214 0 -392.5 103t-281.5 281.5t-103 392.5
t103 392.5t281.5 281.5t392.5 103t392.5 -103t281.5 -281.5t103 -392.5t-103 -392.5t-281.5 -281.5t-392.5 -103z" />
    <glyph glyph-name="uni24CA" unicode="U&#x20dd;" 
d="M900 532q39 0 62.5 22.5t23.5 61.5v432h230v-454q0 -108 -87.5 -179t-228.5 -71t-228.5 71t-87.5 179v454h230v-432q0 -39 23.5 -61.5t62.5 -22.5zM900 144q156 0 286.5 77t205.5 209.5t75 289.5t-75 289.5t-205.5 209.5t-286.5 77t-286.5 -77t-205.5 -209.5t-75 -289.5
t75 -289.5t205.5 -209.5t286.5 -77zM900 -57q-214 0 -392.5 103t-281.5 281.5t-103 392.5t103 392.5t281.5 281.5t392.5 103t392.5 -103t281.5 -281.5t103 -392.5t-103 -392.5t-281.5 -281.5t-392.5 -103z" />
    <glyph glyph-name="uni24CB" unicode="V&#x20dd;" 
d="M738 348l-194 692h258l91 -473h14l91 473h258l-194 -692h-324zM900 144q156 0 286.5 77t205.5 209.5t75 289.5t-75 289.5t-205.5 209.5t-286.5 77t-286.5 -77t-205.5 -209.5t-75 -289.5t75 -289.5t205.5 -209.5t286.5 -77zM900 -57q-214 0 -392.5 103t-281.5 281.5
t-103 392.5t103 392.5t281.5 281.5t392.5 103t392.5 -103t281.5 -281.5t103 -392.5t-103 -392.5t-281.5 -281.5t-392.5 -103z" />
    <glyph glyph-name="uni24CC" unicode="W&#x20dd;" 
d="M896 749l-85 -393h-195l-144 692h197l62 -440h10l85 440h149l84 -440h10l62 440h197l-143 -692h-196l-85 393h-8zM900 144q156 0 286.5 77t205.5 209.5t75 289.5t-75 289.5t-205.5 209.5t-286.5 77t-286.5 -77t-205.5 -209.5t-75 -289.5t75 -289.5t205.5 -209.5
t286.5 -77zM900 -57q-214 0 -392.5 103t-281.5 281.5t-103 392.5t103 392.5t281.5 281.5t392.5 103t392.5 -103t281.5 -281.5t103 -392.5t-103 -392.5t-281.5 -281.5t-392.5 -103z" />
    <glyph glyph-name="uni24CD" unicode="X&#x20dd;" 
d="M1245 1072l-207 -347l206 -345h-244l-97 209h-13l-95 -209h-255l213 346l-212 346h257l95 -210h12l97 210h243zM900 144q156 0 286.5 77t205.5 209.5t75 289.5t-75 289.5t-205.5 209.5t-286.5 77t-286.5 -77t-205.5 -209.5t-75 -289.5t75 -289.5t205.5 -209.5t286.5 -77z
M900 -57q-214 0 -392.5 103t-281.5 281.5t-103 392.5t103 392.5t281.5 281.5t392.5 103t392.5 -103t281.5 -281.5t103 -392.5t-103 -392.5t-281.5 -281.5t-392.5 -103z" />
    <glyph glyph-name="uni24CE" unicode="Y&#x20dd;" 
d="M1026 359h-251v205l-235 488h260l97 -265h7l97 265h259l-234 -487v-206zM900 144q156 0 286.5 77t205.5 209.5t75 289.5t-75 289.5t-205.5 209.5t-286.5 77t-286.5 -77t-205.5 -209.5t-75 -289.5t75 -289.5t205.5 -209.5t286.5 -77zM900 -57q-214 0 -392.5 103
t-281.5 281.5t-103 392.5t103 392.5t281.5 281.5t392.5 103t392.5 -103t281.5 -281.5t103 -392.5t-103 -392.5t-281.5 -281.5t-392.5 -103z" />
    <glyph glyph-name="uni24CF" unicode="Z&#x20dd;" 
d="M623 380v148l265 349v11h-270v184h557v-149l-266 -348v-12h277v-183h-563zM900 144q156 0 286.5 77t205.5 209.5t75 289.5t-75 289.5t-205.5 209.5t-286.5 77t-286.5 -77t-205.5 -209.5t-75 -289.5t75 -289.5t205.5 -209.5t286.5 -77zM900 -57q-214 0 -392.5 103
t-281.5 281.5t-103 392.5t103 392.5t281.5 281.5t392.5 103t392.5 -103t281.5 -281.5t103 -392.5t-103 -392.5t-281.5 -281.5t-392.5 -103z" />
    <glyph glyph-name="uni24EA" unicode="&#x23;&#x20dd;" 
d="M900 546q81 0 81 178q0 177 -81 177t-81 -177q0 -178 81 -178zM897 368q-139 0 -220.5 95t-81.5 261q0 165 81.5 260t220.5 95t223.5 -95t84.5 -260t-84.5 -260.5t-223.5 -95.5zM900 144q156 0 286.5 77t205.5 209.5t75 289.5t-75 289.5t-205.5 209.5t-286.5 77
t-286.5 -77t-205.5 -209.5t-75 -289.5t75 -289.5t205.5 -209.5t286.5 -77zM900 -57q-214 0 -392.5 103t-281.5 281.5t-103 392.5t103 392.5t281.5 281.5t392.5 103t392.5 -103t281.5 -281.5t103 -392.5t-103 -392.5t-281.5 -281.5t-392.5 -103z" />
    <glyph glyph-name="uni24FF" unicode="&#x30;&#x20dd;&#x25cf;" 
d="M899 524q-82 0 -82 200q0 199 82 199t82 -199q0 -200 -82 -200zM896 338q152 0 242.5 103t90.5 283q0 179 -90.5 282t-242.5 103q-151 0 -238.5 -102.5t-87.5 -282.5q0 -181 87.5 -283.5t238.5 -102.5zM900 -55q-157 0 -301 62t-248 166t-165.5 248t-61.5 301
q0 105 28 205.5t78 185.5t122 157t157 122t185.5 78t205.5 28t205.5 -28t185.5 -78t157 -122t122 -157t78 -185.5t28 -205.5q0 -157 -61.5 -301t-165.5 -248t-248 -166t-301 -62z" />
    <glyph glyph-name="uni278A" unicode="&#x31;&#x20dd;&#x25cf;" 
d="M1068 351v746h-260l-178 -116v-224l169 113h7v-519h262zM900 -55q-157 0 -301 62t-248 166t-165.5 248t-61.5 301q0 105 28 205.5t78 185.5t122 157t157 122t185.5 78t205.5 28t205.5 -28t185.5 -78t157 -122t122 -157t78 -185.5t28 -205.5q0 -157 -61.5 -301
t-165.5 -248t-248 -166t-301 -62z" />
    <glyph glyph-name="uni278B" unicode="&#x32;&#x20dd;&#x25cf;" 
d="M817 834v3q0 40 18.5 63t51.5 23q29 0 46.5 -15.5t17.5 -41.5q0 -31 -21.5 -60.5t-78.5 -80.5l-247 -216v-160h602v203h-268v4l105 94q78 66 112.5 119.5t34.5 116.5q0 94 -81.5 158t-203.5 64q-145 0 -231 -75t-86 -196v-3h229zM900 -55q-157 0 -301 62t-248 166
t-165.5 248t-61.5 301q0 105 28 205.5t78 185.5t122 157t157 122t185.5 78t205.5 28t205.5 -28t185.5 -78t157 -122t122 -157t78 -185.5t28 -205.5q0 -157 -61.5 -301t-165.5 -248t-248 -166t-301 -62z" />
    <glyph glyph-name="uni278C" unicode="&#x33;&#x20dd;&#x25cf;" 
d="M816 644h76q39 0 62 -16.5t24 -44.5q0 -28 -23 -44.5t-61 -16.5q-41 0 -65 19.5t-26 52.5h-233q1 -112 90 -183.5t233 -71.5q148 0 238 61.5t90 165.5q-1 70 -47 119t-110 55v8q55 8 96.5 52.5t41.5 103.5q-1 92 -85.5 148.5t-222.5 56.5q-153 -1 -234 -66t-86 -188h234
q0 34 21.5 54t60.5 20q31 0 51.5 -16.5t20.5 -40.5q0 -27 -20.5 -43t-54.5 -16h-71v-169zM900 -55q-157 0 -301 62t-248 166t-165.5 248t-61.5 301q0 105 28 205.5t78 185.5t122 157t157 122t185.5 78t205.5 28t205.5 -28t185.5 -78t157 -122t122 -157t78 -185.5t28 -205.5
q0 -157 -61.5 -301t-165.5 -248t-248 -166t-301 -62z" />
    <glyph glyph-name="uni278D" unicode="&#x34;&#x20dd;&#x25cf;" 
d="M783 1097q-151 -264 -235 -445v-191h366v-110h212v110h103v191h-103v445h-343zM768 653q40 90 132 267h14v-268h-146v1zM900 -55q-157 0 -301 62t-248 166t-165.5 248t-61.5 301q0 105 28 205.5t78 185.5t122 157t157 122t185.5 78t205.5 28t205.5 -28t185.5 -78
t157 -122t122 -157t78 -185.5t28 -205.5q0 -157 -61.5 -301t-165.5 -248t-248 -166t-301 -62z" />
    <glyph glyph-name="uni278E" unicode="&#x35;&#x20dd;&#x25cf;" 
d="M592 589q2 -110 88.5 -176.5t227.5 -66.5q150 0 237.5 74.5t87.5 204.5q0 110 -67.5 175t-178.5 65q-58 0 -102 -20t-61 -52h-8l10 139h354v174h-547l-27 -448h220q23 47 83 47q39 0 64 -24.5t25 -64.5t-25.5 -65t-63.5 -25q-34 0 -59 17t-30 46h-228zM900 -55
q-157 0 -301 62t-248 166t-165.5 248t-61.5 301q0 105 28 205.5t78 185.5t122 157t157 122t185.5 78t205.5 28t205.5 -28t185.5 -78t157 -122t122 -157t78 -185.5t28 -205.5q0 -157 -61.5 -301t-165.5 -248t-248 -166t-301 -62z" />
    <glyph glyph-name="uni278F" unicode="&#x36;&#x20dd;&#x25cf;" 
d="M1230 629q0 95 -64 159.5t-159 64.5q-59 0 -113 -31l-11 1q15 24 27 40q78 112 192 234h-296q-81 -93 -141 -183q-52 -76 -74.5 -142t-22.5 -141q0 -130 93.5 -211.5t243.5 -81.5q148 0 236.5 79.5t88.5 211.5zM811 612q0 40 25.5 65.5t67.5 25.5q41 0 66.5 -26t25.5 -65
t-25.5 -64.5t-66.5 -25.5t-67 25.5t-26 64.5zM900 -55q-157 0 -301 62t-248 166t-165.5 248t-61.5 301q0 105 28 205.5t78 185.5t122 157t157 122t185.5 78t205.5 28t205.5 -28t185.5 -78t157 -122t122 -157t78 -185.5t28 -205.5q0 -157 -61.5 -301t-165.5 -248t-248 -166
t-301 -62z" />
    <glyph glyph-name="uni2790" unicode="&#x37;&#x20dd;&#x25cf;" 
d="M594 1095v-202h352v-4l-298 -541h279l282 545v202h-615zM900 -55q-157 0 -301 62t-248 166t-165.5 248t-61.5 301q0 105 28 205.5t78 185.5t122 157t157 122t185.5 78t205.5 28t205.5 -28t185.5 -78t157 -122t122 -157t78 -185.5t28 -205.5q0 -157 -61.5 -301
t-165.5 -248t-248 -166t-301 -62z" />
    <glyph glyph-name="uni2791" unicode="&#x38;&#x20dd;&#x25cf;" 
d="M899 800q-35 0 -56.5 21t-21.5 55t21.5 56t56.5 22t57 -21.5t22 -56.5q0 -34 -22 -55t-57 -21zM899 495q-41 0 -67 24.5t-26 64.5q0 39 26 64t67 25t67.5 -25t26.5 -64q0 -40 -26.5 -64.5t-67.5 -24.5zM899 338q161 0 254 60.5t93 166.5q0 71 -45.5 118.5t-124.5 58.5v4
q138 40 138 158q0 94 -85 149.5t-230 55.5t-229.5 -55t-84.5 -150q0 -119 138 -158v-4q-79 -11 -124.5 -58.5t-45.5 -118.5q0 -106 93 -166.5t253 -60.5zM900 -55q-157 0 -301 62t-248 166t-165.5 248t-61.5 301q0 105 28 205.5t78 185.5t122 157t157 122t185.5 78t205.5 28
t205.5 -28t185.5 -78t157 -122t122 -157t78 -185.5t28 -205.5q0 -157 -61.5 -301t-165.5 -248t-248 -166t-301 -62z" />
    <glyph glyph-name="uni2792" unicode="&#x39;&#x20dd;&#x25cf;" 
d="M987 835q0 -39 -25.5 -64.5t-67.5 -25.5q-41 0 -66.5 25.5t-25.5 64.5t25.5 65t66.5 26q42 0 67.5 -26t25.5 -65zM568 819q0 -95 64 -159.5t159 -64.5q59 0 113 31l11 -1q-10 -16 -20 -31q-80 -113 -199 -244h296q83 98 141 184q52 76 74.5 142t22.5 141
q0 130 -93.5 211.5t-243.5 81.5q-148 0 -236.5 -79.5t-88.5 -211.5zM900 -55q-157 0 -301 62t-248 166t-165.5 248t-61.5 301q0 105 28 205.5t78 185.5t122 157t157 122t185.5 78t205.5 28t205.5 -28t185.5 -78t157 -122t122 -157t78 -185.5t28 -205.5q0 -157 -61.5 -301
t-165.5 -248t-248 -166t-301 -62z" />
    <glyph glyph-name="uni1F130" unicode="A&#x20de;" 
d="M836 683h128l-55 220h-18zM772 403h-231l214 692h290l214 -692h-231l-28 114h-200zM411 1475h978q109 0 185.5 -75.5t76.5 -182.5v-990q0 -107 -76.5 -182.5t-185.5 -75.5h-978q-109 0 -185.5 75.5t-76.5 182.5v990q0 107 76.5 182.5t185.5 75.5zM1444 1161
q0 52 -37 87.5t-90 35.5h-834q-53 0 -90 -35.5t-37 -87.5v-878q0 -51 37.5 -87t89.5 -36h834q52 0 89.5 36t37.5 87v878z" />
    <glyph glyph-name="uni1F131" unicode="B&#x20de;" 
d="M614 380v692h369q101 0 159.5 -45.5t58.5 -124.5q0 -59 -37.5 -99.5t-99.5 -49.5v-11q77 -9 120.5 -54t43.5 -119q0 -84 -65.5 -136.5t-168.5 -52.5h-380zM830 929v-131h69q88 0 88 67q0 29 -22 46.5t-57 17.5h-78zM829 676v-144h76q96 0 96 73q0 33 -23.5 52t-64.5 19
h-84zM411 1475h978q109 0 185.5 -75.5t76.5 -182.5v-990q0 -107 -76.5 -182.5t-185.5 -75.5h-978q-109 0 -185.5 75.5t-76.5 182.5v990q0 107 76.5 182.5t185.5 75.5zM1444 1161q0 52 -37 87.5t-90 35.5h-834q-53 0 -90 -35.5t-37 -87.5v-878q0 -51 37.5 -87t89.5 -36h834
q52 0 89.5 36t37.5 87v878z" />
    <glyph glyph-name="uni1F132" unicode="C&#x20de;" 
d="M1010 647h214q-5 -123 -94 -201t-229 -78q-151 0 -248 96t-97 261t97 261t248 96q141 0 229.5 -78t93.5 -203h-213q-2 40 -32.5 66.5t-73.5 26.5q-54 0 -85.5 -44t-31.5 -125t31.5 -125t85.5 -44q42 0 72.5 26t32.5 65zM411 1475h978q109 0 185.5 -75.5t76.5 -182.5v-990
q0 -107 -76.5 -182.5t-185.5 -75.5h-978q-109 0 -185.5 75.5t-76.5 182.5v990q0 107 76.5 182.5t185.5 75.5zM1444 1161q0 52 -37 87.5t-90 35.5h-834q-53 0 -90 -35.5t-37 -87.5v-878q0 -51 37.5 -87t89.5 -36h834q52 0 89.5 36t37.5 87v878z" />
    <glyph glyph-name="uni1F133" unicode="D&#x20de;" 
d="M610 1072h320q158 0 241.5 -89.5t83.5 -257.5q0 -167 -83.5 -256t-241.5 -89h-320v692zM835 894v-337h56q67 0 97 39.5t30 128.5t-30 129t-97 40h-56zM411 1475h978q109 0 185.5 -75.5t76.5 -182.5v-990q0 -107 -76.5 -182.5t-185.5 -75.5h-978q-109 0 -185.5 75.5
t-76.5 182.5v990q0 107 76.5 182.5t185.5 75.5zM1444 1161q0 52 -37 87.5t-90 35.5h-834q-53 0 -90 -35.5t-37 -87.5v-878q0 -51 37.5 -87t89.5 -36h834q52 0 89.5 36t37.5 87v878z" />
    <glyph glyph-name="uni1F134" unicode="E&#x20de;" 
d="M1170 554v-174h-515v692h515v-174h-293v-98h274v-147h-274v-99h293zM411 1475h978q109 0 185.5 -75.5t76.5 -182.5v-990q0 -107 -76.5 -182.5t-185.5 -75.5h-978q-109 0 -185.5 75.5t-76.5 182.5v990q0 107 76.5 182.5t185.5 75.5zM1444 1161q0 52 -37 87.5t-90 35.5
h-834q-53 0 -90 -35.5t-37 -87.5v-878q0 -51 37.5 -87t89.5 -36h834q52 0 89.5 36t37.5 87v878z" />
    <glyph glyph-name="uni1F135" unicode="F&#x20de;" 
d="M898 380h-233v692h514v-178h-281v-104h255v-177h-255v-233zM411 1475h978q109 0 185.5 -75.5t76.5 -182.5v-990q0 -107 -76.5 -182.5t-185.5 -75.5h-978q-109 0 -185.5 75.5t-76.5 182.5v990q0 107 76.5 182.5t185.5 75.5zM1444 1161q0 52 -37 87.5t-90 35.5h-834
q-53 0 -90 -35.5t-37 -87.5v-878q0 -51 37.5 -87t89.5 -36h834q52 0 89.5 36t37.5 87v878z" />
    <glyph glyph-name="uni1F136" unicode="G&#x20de;" 
d="M1012 616v17h-109v137h323v-121q0 -121 -89 -201t-235 -80q-155 0 -250.5 98.5t-95.5 258.5t95.5 258.5t250.5 98.5q131 0 220 -69t103 -183h-221q-4 36 -30.5 57.5t-68.5 21.5q-53 0 -85 -50.5t-32 -133.5q0 -85 32.5 -138.5t84.5 -53.5q51 0 79 23t28 60zM411 1475h978
q109 0 185.5 -75.5t76.5 -182.5v-990q0 -107 -76.5 -182.5t-185.5 -75.5h-978q-109 0 -185.5 75.5t-76.5 182.5v990q0 107 76.5 182.5t185.5 75.5zM1444 1161q0 52 -37 87.5t-90 35.5h-834q-53 0 -90 -35.5t-37 -87.5v-878q0 -51 37.5 -87t89.5 -36h834q52 0 89.5 36
t37.5 87v878z" />
    <glyph glyph-name="uni1F137" unicode="H&#x20de;" 
d="M1219 380h-217v249h-204v-249h-217v692h217v-255h204v255h217v-692zM411 1475h978q109 0 185.5 -75.5t76.5 -182.5v-990q0 -107 -76.5 -182.5t-185.5 -75.5h-978q-109 0 -185.5 75.5t-76.5 182.5v990q0 107 76.5 182.5t185.5 75.5zM1444 1161q0 52 -37 87.5t-90 35.5
h-834q-53 0 -90 -35.5t-37 -87.5v-878q0 -51 37.5 -87t89.5 -36h834q52 0 89.5 36t37.5 87v878z" />
    <glyph glyph-name="uni1F138" unicode="I&#x20de;" 
d="M1029 380h-258v692h258v-692zM411 1475h978q109 0 185.5 -75.5t76.5 -182.5v-990q0 -107 -76.5 -182.5t-185.5 -75.5h-978q-109 0 -185.5 75.5t-76.5 182.5v990q0 107 76.5 182.5t185.5 75.5zM1444 1161q0 52 -37 87.5t-90 35.5h-834q-53 0 -90 -35.5t-37 -87.5v-878
q0 -51 37.5 -87t89.5 -36h834q52 0 89.5 36t37.5 87v878z" />
    <glyph glyph-name="uni1F139" unicode="J&#x20de;" 
d="M583 639h230q0 -77 60 -77q56 0 56 79v416h239v-422q0 -130 -77.5 -206t-210.5 -76q-137 0 -217 77.5t-80 208.5zM411 1475h978q109 0 185.5 -75.5t76.5 -182.5v-990q0 -107 -76.5 -182.5t-185.5 -75.5h-978q-109 0 -185.5 75.5t-76.5 182.5v990q0 107 76.5 182.5
t185.5 75.5zM1444 1161q0 52 -37 87.5t-90 35.5h-834q-53 0 -90 -35.5t-37 -87.5v-878q0 -51 37.5 -87t89.5 -36h834q52 0 89.5 36t37.5 87v878z" />
    <glyph glyph-name="uni1F13A" unicode="K&#x20de;" 
d="M1243 1072l-211 -322l215 -370h-260l-129 231l-58 -70v-161h-209v692h209v-258h19l175 258h249zM411 1475h978q109 0 185.5 -75.5t76.5 -182.5v-990q0 -107 -76.5 -182.5t-185.5 -75.5h-978q-109 0 -185.5 75.5t-76.5 182.5v990q0 107 76.5 182.5t185.5 75.5zM1444 1161
q0 52 -37 87.5t-90 35.5h-834q-53 0 -90 -35.5t-37 -87.5v-878q0 -51 37.5 -87t89.5 -36h834q52 0 89.5 36t37.5 87v878z" />
    <glyph glyph-name="uni1F13B" unicode="L&#x20de;" 
d="M1191 590v-195h-509v692h241v-497h268zM411 1475h978q109 0 185.5 -75.5t76.5 -182.5v-990q0 -107 -76.5 -182.5t-185.5 -75.5h-978q-109 0 -185.5 75.5t-76.5 182.5v990q0 107 76.5 182.5t185.5 75.5zM1444 1161q0 52 -37 87.5t-90 35.5h-834q-53 0 -90 -35.5t-37 -87.5
v-878q0 -51 37.5 -87t89.5 -36h834q52 0 89.5 36t37.5 87v878z" />
    <glyph glyph-name="uni1F13C" unicode="M&#x20de;" 
d="M714 380h-170v692h221l133 -416h6l133 416h220v-692h-169v398h-20l-119 -352h-99l-116 352h-20v-398zM411 1475h978q109 0 185.5 -75.5t76.5 -182.5v-990q0 -107 -76.5 -182.5t-185.5 -75.5h-978q-109 0 -185.5 75.5t-76.5 182.5v990q0 107 76.5 182.5t185.5 75.5z
M1444 1161q0 52 -37 87.5t-90 35.5h-834q-53 0 -90 -35.5t-37 -87.5v-878q0 -51 37.5 -87t89.5 -36h834q52 0 89.5 36t37.5 87v878z" />
    <glyph glyph-name="uni1F13D" unicode="N&#x20de;" 
d="M785 380h-195v692h160l248 -339h17v339h195v-692h-159l-248 345h-18v-345zM411 1475h978q109 0 185.5 -75.5t76.5 -182.5v-990q0 -107 -76.5 -182.5t-185.5 -75.5h-978q-109 0 -185.5 75.5t-76.5 182.5v990q0 107 76.5 182.5t185.5 75.5zM1444 1161q0 52 -37 87.5
t-90 35.5h-834q-53 0 -90 -35.5t-37 -87.5v-878q0 -51 37.5 -87t89.5 -36h834q52 0 89.5 36t37.5 87v878z" />
    <glyph glyph-name="uni1F13E" unicode="O&#x20de;" 
d="M900 556q49 0 81 43.5t32 125.5t-32 125.5t-81 43.5t-81 -43.5t-32 -125.5t32 -125.5t81 -43.5zM900 368q-151 0 -248.5 95.5t-97.5 261.5t97.5 261.5t248.5 95.5t248.5 -95.5t97.5 -261.5t-97.5 -261.5t-248.5 -95.5zM411 1475h978q109 0 185.5 -75.5t76.5 -182.5v-990
q0 -107 -76.5 -182.5t-185.5 -75.5h-978q-109 0 -185.5 75.5t-76.5 182.5v990q0 107 76.5 182.5t185.5 75.5zM1444 1161q0 52 -37 87.5t-90 35.5h-834q-53 0 -90 -35.5t-37 -87.5v-878q0 -51 37.5 -87t89.5 -36h834q52 0 89.5 36t37.5 87v878z" />
    <glyph glyph-name="uni1F13F" unicode="P&#x20de;" 
d="M977 1072q121 0 193.5 -72.5t72.5 -191.5q0 -117 -73 -187.5t-196 -70.5h-89v-170h-240v692h332zM1016 808q0 89 -81 89h-67v-177h67q81 0 81 88zM411 1475h978q109 0 185.5 -75.5t76.5 -182.5v-990q0 -107 -76.5 -182.5t-185.5 -75.5h-978q-109 0 -185.5 75.5
t-76.5 182.5v990q0 107 76.5 182.5t185.5 75.5zM1444 1161q0 52 -37 87.5t-90 35.5h-834q-53 0 -90 -35.5t-37 -87.5v-878q0 -51 37.5 -87t89.5 -36h834q52 0 89.5 36t37.5 87v878z" />
    <glyph glyph-name="uni1F140" unicode="Q&#x20de;" 
d="M1229 324h-223l-24 53q-39 -9 -82 -9q-151 0 -248.5 95.5t-97.5 261.5t97.5 261.5t248.5 95.5t248.5 -95.5t97.5 -261.5q0 -173 -106 -271zM900 556q10 0 21 3l-38 89h101l11 -14q18 38 18 91q0 82 -32 125.5t-81 43.5t-81 -43.5t-32 -125.5t32 -125.5t81 -43.5z
M411 1475h978q109 0 185.5 -75.5t76.5 -182.5v-990q0 -107 -76.5 -182.5t-185.5 -75.5h-978q-109 0 -185.5 75.5t-76.5 182.5v990q0 107 76.5 182.5t185.5 75.5zM1444 1161q0 52 -37 87.5t-90 35.5h-834q-53 0 -90 -35.5t-37 -87.5v-878q0 -51 37.5 -87t89.5 -36h834
q52 0 89.5 36t37.5 87v878z" />
    <glyph glyph-name="uni1F141" unicode="R&#x20de;" 
d="M936 1072q138 0 213.5 -60t75.5 -169q0 -72 -36 -122.5t-100 -70.5l151 -270h-241l-111 228h-68v-228h-211v692h327zM820 756h92q37 0 58.5 19t21.5 54q0 36 -20.5 55t-58.5 19h-93v-147zM411 1475h978q109 0 185.5 -75.5t76.5 -182.5v-990q0 -107 -76.5 -182.5
t-185.5 -75.5h-978q-109 0 -185.5 75.5t-76.5 182.5v990q0 107 76.5 182.5t185.5 75.5zM1444 1161q0 52 -37 87.5t-90 35.5h-834q-53 0 -90 -35.5t-37 -87.5v-878q0 -51 37.5 -87t89.5 -36h834q52 0 89.5 36t37.5 87v878z" />
    <glyph glyph-name="uni1F142" unicode="S&#x20de;" 
d="M591 587h222q4 -25 28.5 -40t62.5 -15q40 0 63.5 14.5t23.5 39.5q0 21 -21 31.5t-84 20.5l-77 12q-101 15 -155 67t-54 135q0 104 81.5 166.5t217.5 62.5q125 0 205.5 -57t89.5 -154h-216q-11 51 -79 51q-34 0 -54.5 -13t-20.5 -36q0 -21 21.5 -33t77.5 -19l87 -14
q201 -30 201 -201q0 -108 -85 -172t-228 -64q-139 0 -220.5 57.5t-86.5 160.5zM411 1475h978q109 0 185.5 -75.5t76.5 -182.5v-990q0 -107 -76.5 -182.5t-185.5 -75.5h-978q-109 0 -185.5 75.5t-76.5 182.5v990q0 107 76.5 182.5t185.5 75.5zM1444 1161q0 52 -37 87.5
t-90 35.5h-834q-53 0 -90 -35.5t-37 -87.5v-878q0 -51 37.5 -87t89.5 -36h834q52 0 89.5 36t37.5 87v878z" />
    <glyph glyph-name="uni1F143" unicode="T&#x20de;" 
d="M1021 360h-242v502h-187v191h616v-191h-187v-502zM411 1475h978q109 0 185.5 -75.5t76.5 -182.5v-990q0 -107 -76.5 -182.5t-185.5 -75.5h-978q-109 0 -185.5 75.5t-76.5 182.5v990q0 107 76.5 182.5t185.5 75.5zM1444 1161q0 52 -37 87.5t-90 35.5h-834q-53 0 -90 -35.5
t-37 -87.5v-878q0 -51 37.5 -87t89.5 -36h834q52 0 89.5 36t37.5 87v878z" />
    <glyph glyph-name="uni1F144" unicode="U&#x20de;" 
d="M900 536q38 0 62 23t24 61v433h230v-454q0 -108 -87.5 -179t-228.5 -71t-228.5 71t-87.5 179v454h230v-433q0 -38 24 -61t62 -23zM411 1475h978q109 0 185.5 -75.5t76.5 -182.5v-990q0 -107 -76.5 -182.5t-185.5 -75.5h-978q-109 0 -185.5 75.5t-76.5 182.5v990
q0 107 76.5 182.5t185.5 75.5zM1444 1161q0 52 -37 87.5t-90 35.5h-834q-53 0 -90 -35.5t-37 -87.5v-878q0 -51 37.5 -87t89.5 -36h834q52 0 89.5 36t37.5 87v878z" />
    <glyph glyph-name="uni1F145" unicode="V&#x20de;" 
d="M738 353l-194 692h258l91 -473h14l91 473h258l-194 -692h-324zM411 1475h978q109 0 185.5 -75.5t76.5 -182.5v-990q0 -107 -76.5 -182.5t-185.5 -75.5h-978q-109 0 -185.5 75.5t-76.5 182.5v990q0 107 76.5 182.5t185.5 75.5zM1444 1161q0 52 -37 87.5t-90 35.5h-834
q-53 0 -90 -35.5t-37 -87.5v-878q0 -51 37.5 -87t89.5 -36h834q52 0 89.5 36t37.5 87v878z" />
    <glyph glyph-name="uni1F146" unicode="W&#x20de;" 
d="M896 754l-85 -394h-195l-144 693h197l62 -440h10l85 440h149l84 -440h10l62 440h197l-143 -693h-196l-85 394h-8zM411 1475h978q109 0 185.5 -75.5t76.5 -182.5v-990q0 -107 -76.5 -182.5t-185.5 -75.5h-978q-109 0 -185.5 75.5t-76.5 182.5v990q0 107 76.5 182.5
t185.5 75.5zM1444 1161q0 52 -37 87.5t-90 35.5h-834q-53 0 -90 -35.5t-37 -87.5v-878q0 -51 37.5 -87t89.5 -36h834q52 0 89.5 36t37.5 87v878z" />
    <glyph glyph-name="uni1F147" unicode="X&#x20de;" 
d="M1245 1072l-207 -347l206 -345h-244l-97 209h-13l-95 -209h-255l213 346l-212 346h257l95 -210h12l97 210h243zM411 1475h978q109 0 185.5 -75.5t76.5 -182.5v-990q0 -107 -76.5 -182.5t-185.5 -75.5h-978q-109 0 -185.5 75.5t-76.5 182.5v990q0 107 76.5 182.5
t185.5 75.5zM1444 1161q0 52 -37 87.5t-90 35.5h-834q-53 0 -90 -35.5t-37 -87.5v-878q0 -51 37.5 -87t89.5 -36h834q52 0 89.5 36t37.5 87v878z" />
    <glyph glyph-name="uni1F148" unicode="Y&#x20de;" 
d="M1026 360h-251v206l-235 487h260l97 -265h7l97 265h259l-234 -487v-206zM411 1475h978q109 0 185.5 -75.5t76.5 -182.5v-990q0 -107 -76.5 -182.5t-185.5 -75.5h-978q-109 0 -185.5 75.5t-76.5 182.5v990q0 107 76.5 182.5t185.5 75.5zM1444 1161q0 52 -37 87.5t-90 35.5
h-834q-53 0 -90 -35.5t-37 -87.5v-878q0 -51 37.5 -87t89.5 -36h834q52 0 89.5 36t37.5 87v878z" />
    <glyph glyph-name="uni1F149" unicode="Z&#x20de;" 
d="M623 380v148l265 349v11h-270v184h557v-149l-266 -348v-12h277v-183h-563zM411 1475h978q109 0 185.5 -75.5t76.5 -182.5v-990q0 -107 -76.5 -182.5t-185.5 -75.5h-978q-109 0 -185.5 75.5t-76.5 182.5v990q0 107 76.5 182.5t185.5 75.5zM1444 1161q0 52 -37 87.5
t-90 35.5h-834q-53 0 -90 -35.5t-37 -87.5v-878q0 -51 37.5 -87t89.5 -36h834q52 0 89.5 36t37.5 87v878z" />
    <glyph glyph-name="uni1F150" unicode="A&#x20dd;&#x25cf;" 
d="M976 661h-152l69 276h14zM766 379l30 121h208l31 -121h253l-230 746h-316l-230 -746h254zM900 -55q-157 0 -301 62t-248 166t-165.5 248t-61.5 301q0 105 28 205.5t78 185.5t122 157t157 122t185.5 78t205.5 28t205.5 -28t185.5 -78t157 -122t122 -157t78 -185.5
t28 -205.5q0 -157 -61.5 -301t-165.5 -248t-248 -166t-301 -62z" />
    <glyph glyph-name="uni1F151" unicode="B&#x20dd;&#x25cf;" 
d="M585 351h411q111 0 182.5 58t71.5 149q0 78 -45.5 126.5t-129.5 60.5v5q67 13 106 56.5t39 106.5q0 86 -63 135.5t-174 49.5h-398v-747zM817 942h86q40 0 62.5 -18.5t22.5 -50.5q0 -71 -95 -71h-76v140zM817 672h90q46 0 72 -20.5t26 -56.5q0 -79 -106 -79h-82v156z
M900 -55q-157 0 -301 62t-248 166t-165.5 248t-61.5 301q0 105 28 205.5t78 185.5t122 157t157 122t185.5 78t205.5 28t205.5 -28t185.5 -78t157 -122t122 -157t78 -185.5t28 -205.5q0 -157 -61.5 -301t-165.5 -248t-248 -166t-301 -62z" />
    <glyph glyph-name="uni1F152" unicode="C&#x20dd;&#x25cf;" 
d="M1017 639q-2 -40 -34.5 -67.5t-76.5 -27.5q-57 0 -90.5 46.5t-33.5 132.5t33.5 132t90.5 46q45 0 77.5 -28t34.5 -69h232q-5 134 -101 218.5t-247 84.5q-162 0 -267 -103t-105 -281t105 -281.5t267 -103.5q150 0 246 84t102 217h-233zM900 -55q-157 0 -301 62t-248 166
t-165.5 248t-61.5 301q0 105 28 205.5t78 185.5t122 157t157 122t185.5 78t205.5 28t205.5 -28t185.5 -78t157 -122t122 -157t78 -185.5t28 -205.5q0 -157 -61.5 -301t-165.5 -248t-248 -166t-301 -62z" />
    <glyph glyph-name="uni1F153" unicode="D&#x20dd;&#x25cf;" 
d="M586 1098v-747h345q173 0 262.5 94.5t89.5 278.5t-89.5 279t-262.5 95h-345zM826 915h60q76 0 109 -44.5t33 -146.5t-33 -146t-109 -44h-60v381zM900 -55q-157 0 -301 62t-248 166t-165.5 248t-61.5 301q0 105 28 205.5t78 185.5t122 157t157 122t185.5 78t205.5 28
t205.5 -28t185.5 -78t157 -122t122 -157t78 -185.5t28 -205.5q0 -157 -61.5 -301t-165.5 -248t-248 -166t-301 -62z" />
    <glyph glyph-name="uni1F154" unicode="E&#x20dd;&#x25cf;" 
d="M1189 527h-323v119h302v158h-302v117h323v177h-560v-747h560v176zM900 -55q-157 0 -301 62t-248 166t-165.5 248t-61.5 301q0 105 28 205.5t78 185.5t122 157t157 122t185.5 78t205.5 28t205.5 -28t185.5 -78t157 -122t122 -157t78 -185.5t28 -205.5q0 -157 -61.5 -301
t-165.5 -248t-248 -166t-301 -62z" />
    <glyph glyph-name="uni1F155" unicode="F&#x20dd;&#x25cf;" 
d="M896 351v250h272v191h-272v118h302v188h-559v-747h257zM900 -55q-157 0 -301 62t-248 166t-165.5 248t-61.5 301q0 105 28 205.5t78 185.5t122 157t157 122t185.5 78t205.5 28t205.5 -28t185.5 -78t157 -122t122 -157t78 -185.5t28 -205.5q0 -157 -61.5 -301t-165.5 -248
t-248 -166t-301 -62z" />
    <glyph glyph-name="uni1F156" unicode="G&#x20dd;&#x25cf;" 
d="M1019 612q0 -39 -29.5 -64.5t-83.5 -25.5q-55 0 -89.5 55.5t-34.5 145.5q0 88 34 140t90 52q45 0 72.5 -20.5t31.5 -55.5h241q-16 121 -112 194.5t-236 73.5q-167 0 -270 -106t-103 -278q0 -173 102.5 -279t269.5 -106q156 0 252.5 88t96.5 219v130h-346v-153h114v-10z
M900 -55q-157 0 -301 62t-248 166t-165.5 248t-61.5 301q0 105 28 205.5t78 185.5t122 157t157 122t185.5 78t205.5 28t205.5 -28t185.5 -78t157 -122t122 -157t78 -185.5t28 -205.5q0 -157 -61.5 -301t-165.5 -248t-248 -166t-301 -62z" />
    <glyph glyph-name="uni1F157" unicode="H&#x20dd;&#x25cf;" 
d="M1244 351v747h-237v-272h-213v272h-237v-747h237v267h213v-267h237zM900 -55q-157 0 -301 62t-248 166t-165.5 248t-61.5 301q0 105 28 205.5t78 185.5t122 157t157 122t185.5 78t205.5 28t205.5 -28t185.5 -78t157 -122t122 -157t78 -185.5t28 -205.5q0 -157 -61.5 -301
t-165.5 -248t-248 -166t-301 -62z" />
    <glyph glyph-name="uni1F158" unicode="I&#x20dd;&#x25cf;" 
d="M1041 351v747h-281v-747h281zM900 -55q-157 0 -301 62t-248 166t-165.5 248t-61.5 301q0 105 28 205.5t78 185.5t122 157t157 122t185.5 78t205.5 28t205.5 -28t185.5 -78t157 -122t122 -157t78 -185.5t28 -205.5q0 -157 -61.5 -301t-165.5 -248t-248 -166t-301 -62z" />
    <glyph glyph-name="uni1F159" unicode="J&#x20dd;&#x25cf;" 
d="M556 636q0 -144 86.5 -228t233.5 -84q145 0 228.5 81.5t83.5 222.5v455h-262v-448q0 -80 -56 -80q-61 0 -61 81h-253zM900 -55q-157 0 -301 62t-248 166t-165.5 248t-61.5 301q0 105 28 205.5t78 185.5t122 157t157 122t185.5 78t205.5 28t205.5 -28t185.5 -78t157 -122
t122 -157t78 -185.5t28 -205.5q0 -157 -61.5 -301t-165.5 -248t-248 -166t-301 -62z" />
    <glyph glyph-name="uni1F15A" unicode="K&#x20dd;&#x25cf;" 
d="M1269 1098h-275l-189 -274h-13v274h-230v-747h230v176l57 69l137 -245h287l-232 399zM900 -55q-157 0 -301 62t-248 166t-165.5 248t-61.5 301q0 105 28 205.5t78 185.5t122 157t157 122t185.5 78t205.5 28t205.5 -28t185.5 -78t157 -122t122 -157t78 -185.5t28 -205.5
q0 -157 -61.5 -301t-165.5 -248t-248 -166t-301 -62z" />
    <glyph glyph-name="uni1F15B" unicode="L&#x20dd;&#x25cf;" 
d="M1206 580h-287v533h-265v-747h552v214zM900 -55q-157 0 -301 62t-248 166t-165.5 248t-61.5 301q0 105 28 205.5t78 185.5t122 157t157 122t185.5 78t205.5 28t205.5 -28t185.5 -78t157 -122t122 -157t78 -185.5t28 -205.5q0 -157 -61.5 -301t-165.5 -248t-248 -166
t-301 -62z" />
    <glyph glyph-name="uni1F15C" unicode="M&#x20dd;&#x25cf;" 
d="M699 351v431h20l124 -380h112l127 379h20v-430h185v747h-238l-146 -447h-5l-145 447h-238v-747h184zM900 -55q-157 0 -301 62t-248 166t-165.5 248t-61.5 301q0 105 28 205.5t78 185.5t122 157t157 122t185.5 78t205.5 28t205.5 -28t185.5 -78t157 -122t122 -157
t78 -185.5t28 -205.5q0 -157 -61.5 -301t-165.5 -248t-248 -166t-301 -62z" />
    <glyph glyph-name="uni1F15D" unicode="N&#x20dd;&#x25cf;" 
d="M780 351v369h14l266 -369h176v747h-215v-364h-14l-265 364h-178v-747h216zM900 -55q-157 0 -301 62t-248 166t-165.5 248t-61.5 301q0 105 28 205.5t78 185.5t122 157t157 122t185.5 78t205.5 28t205.5 -28t185.5 -78t157 -122t122 -157t78 -185.5t28 -205.5
q0 -157 -61.5 -301t-165.5 -248t-248 -166t-301 -62z" />
    <glyph glyph-name="uni1F15E" unicode="O&#x20dd;&#x25cf;" 
d="M900 543q-53 0 -86.5 46t-33.5 134t33.5 133.5t86.5 45.5t86.5 -45.5t33.5 -133.5t-33.5 -134t-86.5 -46zM900 338q163 0 268 102.5t105 282.5q0 179 -105 281.5t-268 102.5t-268 -102.5t-105 -281.5q0 -180 105 -282.5t268 -102.5zM900 -55q-157 0 -301 62t-248 166
t-165.5 248t-61.5 301q0 105 28 205.5t78 185.5t122 157t157 122t185.5 78t205.5 28t205.5 -28t185.5 -78t157 -122t122 -157t78 -185.5t28 -205.5q0 -157 -61.5 -301t-165.5 -248t-248 -166t-301 -62z" />
    <glyph glyph-name="uni1F15F" unicode="P&#x20dd;&#x25cf;" 
d="M976 1098h-359v-747h264v183h92q133 0 212 75.5t79 202.5q0 130 -78.5 208t-209.5 78zM1022 812q0 -99 -93 -99h-73v200h73q44 0 68.5 -26t24.5 -75zM900 -55q-157 0 -301 62t-248 166t-165.5 248t-61.5 301q0 105 28 205.5t78 185.5t122 157t157 122t185.5 78t205.5 28
t205.5 -28t185.5 -78t157 -122t122 -157t78 -185.5t28 -205.5q0 -157 -61.5 -301t-165.5 -248t-248 -166t-301 -62z" />
    <glyph glyph-name="uni1F160" unicode="Q&#x20dd;&#x25cf;" 
d="M1257 291l-97 142q113 105 113 290q0 179 -105 281.5t-268 102.5t-268 -102.5t-105 -281.5q0 -180 105 -282.5t268 -102.5q49 0 89 10l24 -57h244zM900 543q-53 0 -86.5 46t-33.5 134t33.5 133.5t86.5 45.5t86.5 -45.5t33.5 -133.5q0 -59 -18 -96l-11 15h-113l42 -97
q-7 -2 -20 -2zM900 -55q-157 0 -301 62t-248 166t-165.5 248t-61.5 301q0 105 28 205.5t78 185.5t122 157t157 122t185.5 78t205.5 28t205.5 -28t185.5 -78t157 -122t122 -157t78 -185.5t28 -205.5q0 -157 -61.5 -301t-165.5 -248t-248 -166t-301 -62z" />
    <glyph glyph-name="uni1F161" unicode="R&#x20dd;&#x25cf;" 
d="M805 754v163h104q89 0 89 -82q0 -38 -24 -59.5t-66 -21.5h-103zM933 1098h-353v-747h233v244h68l117 -244h266l-161 289q68 25 105.5 79.5t37.5 129.5q0 121 -81 185t-232 64zM900 -55q-157 0 -301 62t-248 166t-165.5 248t-61.5 301q0 105 28 205.5t78 185.5t122 157
t157 122t185.5 78t205.5 28t205.5 -28t185.5 -78t157 -122t122 -157t78 -185.5t28 -205.5q0 -157 -61.5 -301t-165.5 -248t-248 -166t-301 -62z" />
    <glyph glyph-name="uni1F162" unicode="S&#x20dd;&#x25cf;" 
d="M566 578q6 -112 93.5 -174.5t238.5 -62.5q153 0 245 69.5t92 185.5q0 188 -218 218l-92 14q-60 9 -83 21.5t-23 34.5q0 24 21.5 38t58.5 14q71 0 84 -55h234q-10 105 -96 167t-222 62q-146 0 -234.5 -67.5t-88.5 -179.5q0 -90 58 -146t168 -73l82 -13q67 -10 89.5 -21.5
t22.5 -34.5q0 -25 -25 -40.5t-67 -15.5q-40 0 -65.5 16t-29.5 43h-243zM900 -55q-157 0 -301 62t-248 166t-165.5 248t-61.5 301q0 105 28 205.5t78 185.5t122 157t157 122t185.5 78t205.5 28t205.5 -28t185.5 -78t157 -122t122 -157t78 -185.5t28 -205.5q0 -157 -61.5 -301
t-165.5 -248t-248 -166t-301 -62z" />
    <glyph glyph-name="uni1F163" unicode="T&#x20dd;&#x25cf;" 
d="M1032 327v538h201v209h-666v-209h201v-538h264zM900 -55q-157 0 -301 62t-248 166t-165.5 248t-61.5 301q0 105 28 205.5t78 185.5t122 157t157 122t185.5 78t205.5 28t205.5 -28t185.5 -78t157 -122t122 -157t78 -185.5t28 -205.5q0 -157 -61.5 -301t-165.5 -248
t-248 -166t-301 -62z" />
    <glyph glyph-name="uni1F164" unicode="U&#x20dd;&#x25cf;" 
d="M900 522q-40 0 -64 23.5t-24 61.5v468h-253v-506q0 -114 93.5 -184t247.5 -70t248 70t94 184v506h-253v-468q0 -38 -24.5 -61.5t-64.5 -23.5zM900 -55q-157 0 -301 62t-248 166t-165.5 248t-61.5 301q0 105 28 205.5t78 185.5t122 157t157 122t185.5 78t205.5 28
t205.5 -28t185.5 -78t157 -122t122 -157t78 -185.5t28 -205.5q0 -157 -61.5 -301t-165.5 -248t-248 -166t-301 -62z" />
    <glyph glyph-name="uni1F165" unicode="V&#x20dd;&#x25cf;" 
d="M1074 320l209 746h-278l-98 -509h-14l-98 509h-278l209 -746h348zM900 -55q-157 0 -301 62t-248 166t-165.5 248t-61.5 301q0 105 28 205.5t78 185.5t122 157t157 122t185.5 78t205.5 28t205.5 -28t185.5 -78t157 -122t122 -157t78 -185.5t28 -205.5q0 -157 -61.5 -301
t-165.5 -248t-248 -166t-301 -62z" />
    <glyph glyph-name="uni1F166" unicode="W&#x20dd;&#x25cf;" 
d="M899 747h2l92 -420h215l156 747h-219l-65 -470h-6l-90 470h-167l-91 -470h-5l-65 470h-220l157 -747h215zM900 -55q-157 0 -301 62t-248 166t-165.5 248t-61.5 301q0 105 28 205.5t78 185.5t122 157t157 122t185.5 78t205.5 28t205.5 -28t185.5 -78t157 -122t122 -157
t78 -185.5t28 -205.5q0 -157 -61.5 -301t-165.5 -248t-248 -166t-301 -62z" />
    <glyph glyph-name="uni1F167" unicode="X&#x20dd;&#x25cf;" 
d="M1273 1098h-264l-103 -225h-12l-102 225h-279l228 -373l-229 -374h276l103 225h12l105 -225h264l-222 373zM900 -55q-157 0 -301 62t-248 166t-165.5 248t-61.5 301q0 105 28 205.5t78 185.5t122 157t157 122t185.5 78t205.5 28t205.5 -28t185.5 -78t157 -122t122 -157
t78 -185.5t28 -205.5q0 -157 -61.5 -301t-165.5 -248t-248 -166t-301 -62z" />
    <glyph glyph-name="uni1F168" unicode="Y&#x20dd;&#x25cf;" 
d="M763 331h275v222l254 525h-285l-105 -283h-4l-104 283h-285l254 -525v-222zM900 -55q-157 0 -301 62t-248 166t-165.5 248t-61.5 301q0 105 28 205.5t78 185.5t122 157t157 122t185.5 78t205.5 28t205.5 -28t185.5 -78t157 -122t122 -157t78 -185.5t28 -205.5
q0 -157 -61.5 -301t-165.5 -248t-248 -166t-301 -62z" />
    <glyph glyph-name="uni1F169" unicode="Z&#x20dd;&#x25cf;" 
d="M600 351h609v203h-288v7l277 374v163h-603v-204h280v-5l-275 -375v-163zM900 -55q-157 0 -301 62t-248 166t-165.5 248t-61.5 301q0 105 28 205.5t78 185.5t122 157t157 122t185.5 78t205.5 28t205.5 -28t185.5 -78t157 -122t122 -157t78 -185.5t28 -205.5
q0 -157 -61.5 -301t-165.5 -248t-248 -166t-301 -62z" />
    <glyph glyph-name="uni1F170" unicode="A&#x20de;&#x25a0;" 
d="M976 656h-152l69 276h14zM766 374l30 122h208l31 -122h253l-230 747h-316l-230 -747h254zM411 1475h978q109 0 185.5 -75.5t76.5 -182.5v-990q0 -107 -76.5 -182.5t-185.5 -75.5h-978q-109 0 -185.5 75.5t-76.5 182.5v990q0 107 76.5 182.5t185.5 75.5z" />
    <glyph glyph-name="uni1F171" unicode="B&#x20de;&#x25a0;" 
d="M585 351h411q110 0 182 58t72 149q0 78 -46 126.5t-129 60.5v5q67 12 106 55.5t39 107.5q0 87 -63 136t-174 49h-398v-747zM817 942h86q40 0 62.5 -18.5t22.5 -50.5q0 -71 -95 -71h-76v140zM817 672h90q46 0 72 -20.5t26 -56.5q0 -79 -106 -79h-82v156zM411 1475h978
q109 0 185.5 -75.5t76.5 -182.5v-990q0 -107 -76.5 -182.5t-185.5 -75.5h-978q-109 0 -185.5 75.5t-76.5 182.5v990q0 107 76.5 182.5t185.5 75.5z" />
    <glyph glyph-name="uni1F172" unicode="C&#x20de;&#x25a0;" 
d="M1017 639q-2 -40 -34.5 -67.5t-76.5 -27.5q-57 0 -90.5 46.5t-33.5 132.5t33.5 132t90.5 46q45 0 77.5 -28t34.5 -69h232q-5 134 -101 218.5t-247 84.5q-162 0 -267 -103t-105 -281t105 -281.5t267 -103.5q150 0 246 84t102 217h-233zM411 1475h978q109 0 185.5 -75.5
t76.5 -182.5v-990q0 -107 -76.5 -182.5t-185.5 -75.5h-978q-109 0 -185.5 75.5t-76.5 182.5v990q0 107 76.5 182.5t185.5 75.5z" />
    <glyph glyph-name="uni1F173" unicode="D&#x20de;&#x25a0;" 
d="M580 1098v-747h346q173 0 262 95t89 278t-89 278.5t-262 95.5h-346zM820 915h61q76 0 109 -44.5t33 -146.5t-33 -146t-109 -44h-61v381zM411 1475h978q109 0 185.5 -75.5t76.5 -182.5v-990q0 -107 -76.5 -182.5t-185.5 -75.5h-978q-109 0 -185.5 75.5t-76.5 182.5v990
q0 107 76.5 182.5t185.5 75.5z" />
    <glyph glyph-name="uni1F174" unicode="E&#x20de;&#x25a0;" 
d="M1189 527h-323v119h302v158h-302v117h323v177h-560v-747h560v176zM411 1475h978q109 0 185.5 -75.5t76.5 -182.5v-990q0 -107 -76.5 -182.5t-185.5 -75.5h-978q-109 0 -185.5 75.5t-76.5 182.5v990q0 107 76.5 182.5t185.5 75.5z" />
    <glyph glyph-name="uni1F175" unicode="F&#x20de;&#x25a0;" 
d="M896 351v250h272v191h-272v118h302v188h-559v-747h257zM411 1475h978q109 0 185.5 -75.5t76.5 -182.5v-990q0 -107 -76.5 -182.5t-185.5 -75.5h-978q-109 0 -185.5 75.5t-76.5 182.5v990q0 107 76.5 182.5t185.5 75.5z" />
    <glyph glyph-name="uni1F176" unicode="G&#x20de;&#x25a0;" 
d="M1019 612q0 -39 -29.5 -64.5t-83.5 -25.5q-55 0 -89.5 55.5t-34.5 145.5q0 88 34 140t90 52q45 0 72.5 -20.5t31.5 -55.5h241q-16 121 -112 194.5t-236 73.5q-167 0 -270 -106t-103 -278q0 -173 102.5 -279t269.5 -106q156 0 252.5 88t96.5 219v130h-346v-153h114v-10z
M411 1475h978q109 0 185.5 -75.5t76.5 -182.5v-990q0 -107 -76.5 -182.5t-185.5 -75.5h-978q-109 0 -185.5 75.5t-76.5 182.5v990q0 107 76.5 182.5t185.5 75.5z" />
    <glyph glyph-name="uni1F177" unicode="H&#x20de;&#x25a0;" 
d="M1244 351v747h-237v-272h-213v272h-237v-747h237v267h213v-267h237zM411 1475h978q109 0 185.5 -75.5t76.5 -182.5v-990q0 -107 -76.5 -182.5t-185.5 -75.5h-978q-109 0 -185.5 75.5t-76.5 182.5v990q0 107 76.5 182.5t185.5 75.5z" />
    <glyph glyph-name="uni1F178" unicode="I&#x20de;&#x25a0;" 
d="M1041 351v747h-281v-747h281zM411 1475h978q109 0 185.5 -75.5t76.5 -182.5v-990q0 -107 -76.5 -182.5t-185.5 -75.5h-978q-109 0 -185.5 75.5t-76.5 182.5v990q0 107 76.5 182.5t185.5 75.5z" />
    <glyph glyph-name="uni1F179" unicode="J&#x20de;&#x25a0;" 
d="M556 636q0 -143 86 -227.5t234 -84.5q145 0 228.5 81t83.5 223v455h-262v-448q0 -80 -56 -80q-61 0 -61 81h-253zM411 1475h978q109 0 185.5 -75.5t76.5 -182.5v-990q0 -107 -76.5 -182.5t-185.5 -75.5h-978q-109 0 -185.5 75.5t-76.5 182.5v990q0 107 76.5 182.5
t185.5 75.5z" />
    <glyph glyph-name="uni1F17A" unicode="K&#x20de;&#x25a0;" 
d="M1269 1098h-275l-189 -274h-13v274h-230v-747h230v176l57 69l137 -245h287q-11 17 -115.5 199.5t-116.5 199.5zM411 1475h978q109 0 185.5 -75.5t76.5 -182.5v-990q0 -107 -76.5 -182.5t-185.5 -75.5h-978q-109 0 -185.5 75.5t-76.5 182.5v990q0 107 76.5 182.5
t185.5 75.5z" />
    <glyph glyph-name="uni1F17B" unicode="L&#x20de;&#x25a0;" 
d="M1208 580h-286v533h-266v-747h552v214zM411 1475h978q109 0 185.5 -75.5t76.5 -182.5v-990q0 -107 -76.5 -182.5t-185.5 -75.5h-978q-109 0 -185.5 75.5t-76.5 182.5v990q0 107 76.5 182.5t185.5 75.5z" />
    <glyph glyph-name="uni1F17C" unicode="M&#x20de;&#x25a0;" 
d="M699 351v431h20l124 -380h112l127 379h20v-430h185v747h-238l-146 -447h-5l-145 447h-238v-747h184zM411 1475h978q109 0 185.5 -75.5t76.5 -182.5v-990q0 -107 -76.5 -182.5t-185.5 -75.5h-978q-109 0 -185.5 75.5t-76.5 182.5v990q0 107 76.5 182.5t185.5 75.5z" />
    <glyph glyph-name="uni1F17D" unicode="N&#x20de;&#x25a0;" 
d="M780 351v369h14l266 -369h176v747h-215v-364h-14l-265 364h-178v-747h216zM411 1475h978q109 0 185.5 -75.5t76.5 -182.5v-990q0 -107 -76.5 -182.5t-185.5 -75.5h-978q-109 0 -185.5 75.5t-76.5 182.5v990q0 107 76.5 182.5t185.5 75.5z" />
    <glyph glyph-name="uni1F17E" unicode="O&#x20de;&#x25a0;" 
d="M900 543q-53 0 -86.5 46t-33.5 134t33.5 133.5t86.5 45.5t86.5 -45.5t33.5 -133.5t-33.5 -134t-86.5 -46zM900 338q163 0 268 102.5t105 282.5q0 179 -105 281.5t-268 102.5t-268 -102.5t-105 -281.5q0 -180 105 -282.5t268 -102.5zM411 1475h978q109 0 185.5 -75.5
t76.5 -182.5v-990q0 -107 -76.5 -182.5t-185.5 -75.5h-978q-109 0 -185.5 75.5t-76.5 182.5v990q0 107 76.5 182.5t185.5 75.5z" />
    <glyph glyph-name="uni1F17F" unicode="P&#x20de;&#x25a0;" 
d="M976 1098h-359v-747h264v183h92q134 0 212.5 75.5t78.5 202.5q0 130 -78 208t-210 78zM1022 812q0 -99 -93 -99h-73v200h73q44 0 68.5 -26.5t24.5 -74.5zM411 1475h978q109 0 185.5 -75.5t76.5 -182.5v-990q0 -107 -76.5 -182.5t-185.5 -75.5h-978q-109 0 -185.5 75.5
t-76.5 182.5v990q0 107 76.5 182.5t185.5 75.5z" />
    <glyph glyph-name="uni1F180" unicode="Q&#x20de;&#x25a0;" 
d="M1257 291l-97 142q113 105 113 290q0 179 -105 281.5t-268 102.5t-268 -102.5t-105 -281.5q0 -180 105 -282.5t268 -102.5q49 0 89 10l24 -57h244zM900 543q-53 0 -86.5 46t-33.5 134t33.5 133.5t86.5 45.5t86.5 -45.5t33.5 -133.5q0 -59 -18 -96l-11 15h-113l42 -97
q-7 -2 -20 -2zM411 1475h978q109 0 185.5 -75.5t76.5 -182.5v-990q0 -107 -76.5 -182.5t-185.5 -75.5h-978q-109 0 -185.5 75.5t-76.5 182.5v990q0 107 76.5 182.5t185.5 75.5z" />
    <glyph glyph-name="uni1F181" unicode="R&#x20de;&#x25a0;" 
d="M805 754v163h104q89 0 89 -82q0 -38 -24 -59.5t-66 -21.5h-103zM933 1098h-353v-747h233v244h68l117 -244h266l-161 289q68 24 105.5 78.5t37.5 130.5q0 120 -81 184.5t-232 64.5zM411 1475h978q109 0 185.5 -75.5t76.5 -182.5v-990q0 -107 -76.5 -182.5t-185.5 -75.5
h-978q-109 0 -185.5 75.5t-76.5 182.5v990q0 107 76.5 182.5t185.5 75.5z" />
    <glyph glyph-name="uni1F182" unicode="S&#x20de;&#x25a0;" 
d="M566 578q6 -112 93.5 -174.5t238.5 -62.5q153 0 245 69.5t92 185.5q0 188 -218 218l-92 14q-60 9 -83 21.5t-23 34.5q0 24 21.5 38t58.5 14q71 0 84 -55h234q-10 105 -96 167t-222 62q-146 0 -234.5 -67.5t-88.5 -179.5q0 -90 58 -146t168 -73l82 -13q67 -10 89.5 -21.5
t22.5 -34.5q0 -25 -25 -40.5t-67 -15.5q-40 0 -65.5 16t-29.5 43h-243zM411 1475h978q109 0 185.5 -75.5t76.5 -182.5v-990q0 -107 -76.5 -182.5t-185.5 -75.5h-978q-109 0 -185.5 75.5t-76.5 182.5v990q0 107 76.5 182.5t185.5 75.5z" />
    <glyph glyph-name="uni1F183" unicode="T&#x20de;&#x25a0;" 
d="M1032 332v538h201v209h-666v-209h201v-538h264zM411 1475h978q109 0 185.5 -75.5t76.5 -182.5v-990q0 -107 -76.5 -182.5t-185.5 -75.5h-978q-109 0 -185.5 75.5t-76.5 182.5v990q0 107 76.5 182.5t185.5 75.5z" />
    <glyph glyph-name="uni1F184" unicode="U&#x20de;&#x25a0;" 
d="M900 527q-40 0 -64 23.5t-24 61.5v468h-253v-506q0 -114 93.5 -184t247.5 -70t248 70t94 184v506h-253v-468q0 -39 -24 -62t-65 -23zM411 1475h978q109 0 185.5 -75.5t76.5 -182.5v-990q0 -107 -76.5 -182.5t-185.5 -75.5h-978q-109 0 -185.5 75.5t-76.5 182.5v990
q0 107 76.5 182.5t185.5 75.5z" />
    <glyph glyph-name="uni1F185" unicode="V&#x20de;&#x25a0;" 
d="M1074 325l209 746h-278l-98 -509h-14l-98 509h-278l209 -746h348zM411 1475h978q109 0 185.5 -75.5t76.5 -182.5v-990q0 -107 -76.5 -182.5t-185.5 -75.5h-978q-109 0 -185.5 75.5t-76.5 182.5v990q0 107 76.5 182.5t185.5 75.5z" />
    <glyph glyph-name="uni1F186" unicode="W&#x20de;&#x25a0;" 
d="M899 752h2l92 -420h215l156 747h-219l-65 -471h-6l-90 471h-167l-91 -471h-5l-65 471h-220l157 -747h215zM411 1475h978q109 0 185.5 -75.5t76.5 -182.5v-990q0 -107 -76.5 -182.5t-185.5 -75.5h-978q-109 0 -185.5 75.5t-76.5 182.5v990q0 107 76.5 182.5t185.5 75.5z
" />
    <glyph glyph-name="uni1F187" unicode="X&#x20de;&#x25a0;" 
d="M1273 1098h-264l-103 -225h-12l-102 225h-279l228 -373l-229 -374h276l103 225h12l105 -225h264l-222 373zM411 1475h978q109 0 185.5 -75.5t76.5 -182.5v-990q0 -107 -76.5 -182.5t-185.5 -75.5h-978q-109 0 -185.5 75.5t-76.5 182.5v990q0 107 76.5 182.5t185.5 75.5z
" />
    <glyph glyph-name="uni1F188" unicode="Y&#x20de;&#x25a0;" 
d="M763 332h275v222l254 525h-285l-105 -283h-4l-104 283h-285l254 -525v-222zM411 1475h978q109 0 185.5 -75.5t76.5 -182.5v-990q0 -107 -76.5 -182.5t-185.5 -75.5h-978q-109 0 -185.5 75.5t-76.5 182.5v990q0 107 76.5 182.5t185.5 75.5z" />
    <glyph glyph-name="uni1F189" unicode="Z&#x20de;&#x25a0;" 
d="M600 351h609v203h-288v7l277 374v163h-603v-204h280v-5l-275 -375v-163zM411 1475h978q109 0 185.5 -75.5t76.5 -182.5v-990q0 -107 -76.5 -182.5t-185.5 -75.5h-978q-109 0 -185.5 75.5t-76.5 182.5v990q0 107 76.5 182.5t185.5 75.5z" />
    <glyph glyph-name="plus.uc.whitecircle" unicode="&#x2b;&#x20dd;" 
d="M1004 625v-207h-208v207h-202v198h202v206h208v-206h202v-198h-202zM900 144q156 0 286.5 77t205.5 209.5t75 289.5t-75 289.5t-205.5 209.5t-286.5 77t-286.5 -77t-205.5 -209.5t-75 -289.5t75 -289.5t205.5 -209.5t286.5 -77zM900 -57q-214 0 -392.5 103t-281.5 281.5
t-103 392.5t103 392.5t281.5 281.5t392.5 103t392.5 -103t281.5 -281.5t103 -392.5t-103 -392.5t-281.5 -281.5t-392.5 -103z" />
    <glyph glyph-name="minus.uc.whitecircle" unicode="&#x2212;&#x20dd;" 
d="M1170 620h-540v207h540v-207zM900 144q156 0 286.5 77t205.5 209.5t75 289.5t-75 289.5t-205.5 209.5t-286.5 77t-286.5 -77t-205.5 -209.5t-75 -289.5t75 -289.5t205.5 -209.5t286.5 -77zM900 -57q-214 0 -392.5 103t-281.5 281.5t-103 392.5t103 392.5t281.5 281.5
t392.5 103t392.5 -103t281.5 -281.5t103 -392.5t-103 -392.5t-281.5 -281.5t-392.5 -103z" />
    <glyph glyph-name="multiply.uc.whitecircle" unicode="&#xd7;&#x20dd;" 
d="M899 870l157 155l148 -147l-157 -155l157 -155l-148 -144l-157 154l-157 -154l-145 144l156 155l-157 157l146 145zM900 144q156 0 286.5 77t205.5 209.5t75 289.5t-75 289.5t-205.5 209.5t-286.5 77t-286.5 -77t-205.5 -209.5t-75 -289.5t75 -289.5t205.5 -209.5
t286.5 -77zM900 -57q-214 0 -392.5 103t-281.5 281.5t-103 392.5t103 392.5t281.5 281.5t392.5 103t392.5 -103t281.5 -281.5t103 -392.5t-103 -392.5t-281.5 -281.5t-392.5 -103z" />
    <glyph glyph-name="divide.uc.whitecircle" unicode="&#xf7;&#x20dd;" 
d="M1170 646h-540v156h540v-156zM793 955q0 41 30.5 68t76.5 27t77 -27t31 -68q0 -40 -31 -66.5t-77 -26.5t-76.5 26.5t-30.5 66.5zM793 493q0 41 30.5 67.5t76.5 26.5t77 -26.5t31 -67.5t-31 -67.5t-77 -26.5t-76.5 26.5t-30.5 67.5zM900 144q156 0 286.5 77t205.5 209.5
t75 289.5t-75 289.5t-205.5 209.5t-286.5 77t-286.5 -77t-205.5 -209.5t-75 -289.5t75 -289.5t205.5 -209.5t286.5 -77zM900 -57q-214 0 -392.5 103t-281.5 281.5t-103 392.5t103 392.5t281.5 281.5t392.5 103t392.5 -103t281.5 -281.5t103 -392.5t-103 -392.5
t-281.5 -281.5t-392.5 -103z" />
    <glyph glyph-name="equal.uc.whitecircle" unicode="&#x3d;&#x20dd;" 
d="M1189 494h-577v179h577v-179zM1189 772h-577v179h577v-179zM900 144q156 0 286.5 77t205.5 209.5t75 289.5t-75 289.5t-205.5 209.5t-286.5 77t-286.5 -77t-205.5 -209.5t-75 -289.5t75 -289.5t205.5 -209.5t286.5 -77zM900 -57q-214 0 -392.5 103t-281.5 281.5
t-103 392.5t103 392.5t281.5 281.5t392.5 103t392.5 -103t281.5 -281.5t103 -392.5t-103 -392.5t-281.5 -281.5t-392.5 -103z" />
    <glyph glyph-name="greater.uc.whitecircle" unicode="&#x3e;&#x20dd;" 
d="M1198 784v-123l-542 -255v215l257 100v9l-257 90v222zM900 144q156 0 286.5 77t205.5 209.5t75 289.5t-75 289.5t-205.5 209.5t-286.5 77t-286.5 -77t-205.5 -209.5t-75 -289.5t75 -289.5t205.5 -209.5t286.5 -77zM900 -57q-214 0 -392.5 103t-281.5 281.5t-103 392.5
t103 392.5t281.5 281.5t392.5 103t392.5 -103t281.5 -281.5t103 -392.5t-103 -392.5t-281.5 -281.5t-392.5 -103z" />
    <glyph glyph-name="less.uc.whitecircle" unicode="&#x3c;&#x20dd;" 
d="M602 661v123l542 258v-222l-257 -90v-9l257 -100v-215zM900 144q156 0 286.5 77t205.5 209.5t75 289.5t-75 289.5t-205.5 209.5t-286.5 77t-286.5 -77t-205.5 -209.5t-75 -289.5t75 -289.5t205.5 -209.5t286.5 -77zM900 -57q-214 0 -392.5 103t-281.5 281.5t-103 392.5
t103 392.5t281.5 281.5t392.5 103t392.5 -103t281.5 -281.5t103 -392.5t-103 -392.5t-281.5 -281.5t-392.5 -103z" />
    <glyph glyph-name="numbersign.whitecircle" unicode="&#x30;&#x20dd;" 
d="M1198 767h-93l-14 -76h95l-30 -150h-96l-34 -163h-159l31 163h-72l-33 -163h-161l34 163h-92l29 150h92l16 76h-95l29 151h93l30 153h161l-31 -153h74l29 153h161l-29 -153h93zM859 781l-22 -113h105l20 113h-103zM900 144q156 0 286.5 77t205.5 209.5t75 289.5
t-75 289.5t-205.5 209.5t-286.5 77t-286.5 -77t-205.5 -209.5t-75 -289.5t75 -289.5t205.5 -209.5t286.5 -77zM900 -57q-214 0 -392.5 103t-281.5 281.5t-103 392.5t103 392.5t281.5 281.5t392.5 103t392.5 -103t281.5 -281.5t103 -392.5t-103 -392.5t-281.5 -281.5
t-392.5 -103z" />
    <glyph glyph-name="uni25BC.whitecircle" unicode="&#x25bc;&#x20dd;" 
d="M1235 947l-335 -581l-334 581h669zM900 144q156 0 286.5 77t205.5 209.5t75 289.5t-75 289.5t-205.5 209.5t-286.5 77t-286.5 -77t-205.5 -209.5t-75 -289.5t75 -289.5t205.5 -209.5t286.5 -77zM900 -57q-214 0 -392.5 103t-281.5 281.5t-103 392.5t103 392.5
t281.5 281.5t392.5 103t392.5 -103t281.5 -281.5t103 -392.5t-103 -392.5t-281.5 -281.5t-392.5 -103z" />
    <glyph glyph-name="uni25B2.whitecircle" unicode="&#x25b2;&#x20dd;" 
d="M1235 500h-669l334 581zM900 144q156 0 286.5 77t205.5 209.5t75 289.5t-75 289.5t-205.5 209.5t-286.5 77t-286.5 -77t-205.5 -209.5t-75 -289.5t75 -289.5t205.5 -209.5t286.5 -77zM900 -57q-214 0 -392.5 103t-281.5 281.5t-103 392.5t103 392.5t281.5 281.5
t392.5 103t392.5 -103t281.5 -281.5t103 -392.5t-103 -392.5t-281.5 -281.5t-392.5 -103z" />
    <glyph glyph-name="uni25C0.whitecircle" unicode="&#x25c0;&#x20dd;" 
d="M1120 392l-581 335l581 335v-670zM900 144q156 0 286.5 77t205.5 209.5t75 289.5t-75 289.5t-205.5 209.5t-286.5 77t-286.5 -77t-205.5 -209.5t-75 -289.5t75 -289.5t205.5 -209.5t286.5 -77zM900 -57q-214 0 -392.5 103t-281.5 281.5t-103 392.5t103 392.5t281.5 281.5
t392.5 103t392.5 -103t281.5 -281.5t103 -392.5t-103 -392.5t-281.5 -281.5t-392.5 -103z" />
    <glyph glyph-name="uni25B6.whitecircle" unicode="&#x25b6;&#x20dd;" 
d="M680 392v670l581 -335zM900 144q156 0 286.5 77t205.5 209.5t75 289.5t-75 289.5t-205.5 209.5t-286.5 77t-286.5 -77t-205.5 -209.5t-75 -289.5t75 -289.5t205.5 -209.5t286.5 -77zM900 -57q-214 0 -392.5 103t-281.5 281.5t-103 392.5t103 392.5t281.5 281.5t392.5 103
t392.5 -103t281.5 -281.5t103 -392.5t-103 -392.5t-281.5 -281.5t-392.5 -103z" />
    <glyph glyph-name="question.whitecircle" unicode="&#x3f;&#x20dd;" 
d="M766 464q0 46 34 71.5t94 25.5t94 -26t34 -71q0 -46 -33.5 -71t-94.5 -25q-60 0 -94 25t-34 71zM787 604q-3 8 -3 31q-1 92 82 144q46 29 64.5 47.5t18.5 38.5q0 22 -14.5 34.5t-36.5 12.5q-21 0 -35.5 -15.5t-16.5 -38.5h-205q0 110 73.5 166t205.5 56
q116 0 187.5 -55.5t71.5 -150.5q0 -56 -24.5 -94.5t-75.5 -70.5q-63 -40 -79 -56.5t-16 -41.5v-7h-197zM900 144q156 0 286.5 77t205.5 209.5t75 289.5t-75 289.5t-205.5 209.5t-286.5 77t-286.5 -77t-205.5 -209.5t-75 -289.5t75 -289.5t205.5 -209.5t286.5 -77zM900 -57
q-214 0 -392.5 103t-281.5 281.5t-103 392.5t103 392.5t281.5 281.5t392.5 103t392.5 -103t281.5 -281.5t103 -392.5t-103 -392.5t-281.5 -281.5t-392.5 -103z" />
    <glyph glyph-name="exclam.whitecircle" unicode="&#x21;&#x20dd;" 
d="M777 464q0 46 34.5 71.5t94.5 25.5t93.5 -26t33.5 -71q0 -46 -33 -71t-94 -25q-60 0 -94.5 25.5t-34.5 70.5zM780 1072h251l-27 -458h-198zM900 144q156 0 286.5 77t205.5 209.5t75 289.5t-75 289.5t-205.5 209.5t-286.5 77t-286.5 -77t-205.5 -209.5t-75 -289.5
t75 -289.5t205.5 -209.5t286.5 -77zM900 -57q-214 0 -392.5 103t-281.5 281.5t-103 392.5t103 392.5t281.5 281.5t392.5 103t392.5 -103t281.5 -281.5t103 -392.5t-103 -392.5t-281.5 -281.5t-392.5 -103z" />
    <glyph glyph-name="uni2717.whitecircle" unicode="&#x2717;&#x20dd;" 
d="M903 862l209 207l138 -138l-207 -208l207 -208l-138 -139l-209 207l-209 -208l-138 138l209 210l-208 208l138 139zM900 144q156 0 286.5 77t205.5 209.5t75 289.5t-75 289.5t-205.5 209.5t-286.5 77t-286.5 -77t-205.5 -209.5t-75 -289.5t75 -289.5t205.5 -209.5
t286.5 -77zM900 -57q-214 0 -392.5 103t-281.5 281.5t-103 392.5t103 392.5t281.5 281.5t392.5 103t392.5 -103t281.5 -281.5t103 -392.5t-103 -392.5t-281.5 -281.5t-392.5 -103z" />
    <glyph glyph-name="uni2713.whitecircle" unicode="&#x2713;&#x20dd;" 
d="M1330 890l-541 -528l-323 318l144 141l183 -182l398 397zM900 144q156 0 286.5 77t205.5 209.5t75 289.5t-75 289.5t-205.5 209.5t-286.5 77t-286.5 -77t-205.5 -209.5t-75 -289.5t75 -289.5t205.5 -209.5t286.5 -77zM900 -57q-214 0 -392.5 103t-281.5 281.5t-103 392.5
t103 392.5t281.5 281.5t392.5 103t392.5 -103t281.5 -281.5t103 -392.5t-103 -392.5t-281.5 -281.5t-392.5 -103z" />
    <glyph glyph-name="zero.whitesquare" unicode="&#x30;&#x20de;" 
d="M900 546q81 0 81 178q0 177 -81 177t-81 -177q0 -178 81 -178zM897 368q-139 0 -220.5 95t-81.5 261q0 165 81.5 260t220.5 95t223.5 -95t84.5 -260t-84.5 -260.5t-223.5 -95.5zM411 1475h978q109 0 185.5 -75.5t76.5 -182.5v-990q0 -107 -76.5 -182.5t-185.5 -75.5h-978
q-109 0 -185.5 75.5t-76.5 182.5v990q0 107 76.5 182.5t185.5 75.5zM1444 1161q0 52 -37 87.5t-90 35.5h-834q-53 0 -90 -35.5t-37 -87.5v-878q0 -51 37.5 -87t89.5 -36h834q52 0 89.5 36t37.5 87v878z" />
    <glyph glyph-name="one.whitesquare" unicode="&#x31;&#x20de;" 
d="M1056 380h-238v486h-12l-152 -103v201l164 108h238v-692zM411 1475h978q109 0 185.5 -75.5t76.5 -182.5v-990q0 -107 -76.5 -182.5t-185.5 -75.5h-978q-109 0 -185.5 75.5t-76.5 182.5v990q0 107 76.5 182.5t185.5 75.5zM1444 1161q0 52 -37 87.5t-90 35.5h-834
q-53 0 -90 -35.5t-37 -87.5v-878q0 -51 37.5 -87t89.5 -36h834q52 0 89.5 36t37.5 87v878z" />
    <glyph glyph-name="two.whitesquare" unicode="&#x32;&#x20de;" 
d="M833 832h-219v2q0 110 78 179t210 69q122 0 198.5 -59.5t76.5 -152.5q0 -53 -32 -102t-102 -110l-93 -87v-9h237v-183h-557v146l240 218q41 38 57 60.5t16 46.5q0 23 -14.5 36.5t-37.5 13.5q-27 0 -43 -18t-15 -48v-2zM411 1475h978q109 0 185.5 -75.5t76.5 -182.5v-990
q0 -107 -76.5 -182.5t-185.5 -75.5h-978q-109 0 -185.5 75.5t-76.5 182.5v990q0 107 76.5 182.5t185.5 75.5zM1444 1161q0 52 -37 87.5t-90 35.5h-834q-53 0 -90 -35.5t-37 -87.5v-878q0 -51 37.5 -87t89.5 -36h834q52 0 89.5 36t37.5 87v878z" />
    <glyph glyph-name="three.whitesquare" unicode="&#x33;&#x20de;" 
d="M828 644v169h65q30 0 48.5 15.5t18.5 40.5q0 22 -18.5 35t-48.5 13q-34 0 -54.5 -19.5t-20.5 -50.5h-216q5 113 80 174t215 61q130 -1 207.5 -52t78.5 -136q0 -53 -39.5 -95t-90.5 -49v-11q60 -5 103 -50t44 -112q0 -96 -82.5 -152t-221.5 -56q-136 0 -216.5 64.5
t-81.5 170.5h216q1 -29 22 -47t57 -18t57 14.5t21 37.5q-2 53 -77 53h-66zM411 1475h978q109 0 185.5 -75.5t76.5 -182.5v-990q0 -107 -76.5 -182.5t-185.5 -75.5h-978q-109 0 -185.5 75.5t-76.5 182.5v990q0 107 76.5 182.5t185.5 75.5zM1444 1161q0 52 -37 87.5t-90 35.5
h-834q-53 0 -90 -35.5t-37 -87.5v-878q0 -51 37.5 -87t89.5 -36h834q52 0 89.5 36t37.5 87v878z" />
    <glyph glyph-name="four.whitesquare" unicode="&#x34;&#x20de;" 
d="M801 1072h314v-417h97v-172h-97v-103h-191v103h-343v175q80 168 220 414zM780 655h144v258h-18q-74 -140 -126 -257v-1zM411 1475h978q109 0 185.5 -75.5t76.5 -182.5v-990q0 -107 -76.5 -182.5t-185.5 -75.5h-978q-109 0 -185.5 75.5t-76.5 182.5v990q0 107 76.5 182.5
t185.5 75.5zM1444 1161q0 52 -37 87.5t-90 35.5h-834q-53 0 -90 -35.5t-37 -87.5v-878q0 -51 37.5 -87t89.5 -36h834q52 0 89.5 36t37.5 87v878z" />
    <glyph glyph-name="five.whitesquare" unicode="&#x35;&#x20de;" 
d="M620 602h218q5 -25 25.5 -39.5t48.5 -14.5q31 0 53.5 22t22.5 56q0 31 -22 52.5t-54 21.5q-49 0 -68 -39h-211l25 418h506v-163h-332l-9 -129h11q16 29 57.5 48t94.5 19q102 0 164.5 -59.5t62.5 -161.5q0 -118 -81 -187.5t-220 -69.5q-129 0 -210 63.5t-82 162.5z
M411 1475h978q109 0 185.5 -75.5t76.5 -182.5v-990q0 -107 -76.5 -182.5t-185.5 -75.5h-978q-109 0 -185.5 75.5t-76.5 182.5v990q0 107 76.5 182.5t185.5 75.5zM1444 1161q0 52 -37 87.5t-90 35.5h-834q-53 0 -90 -35.5t-37 -87.5v-878q0 -51 37.5 -87t89.5 -36h834
q52 0 89.5 36t37.5 87v878z" />
    <glyph glyph-name="six.whitesquare" unicode="&#x36;&#x20de;" 
d="M1207 637q0 -122 -83 -195.5t-219 -73.5q-140 0 -227 75t-87 196q0 70 21 132t71 134q58 86 130 167h275q-102 -109 -176 -213q-15 -23 -27 -42h10q47 29 105 29q88 0 147.5 -60t59.5 -149zM828 623q0 -33 21 -54t55 -21q33 0 54.5 21.5t21.5 53.5t-21.5 53t-54.5 21
q-34 0 -55 -21t-21 -53zM411 1475h978q109 0 185.5 -75.5t76.5 -182.5v-990q0 -107 -76.5 -182.5t-185.5 -75.5h-978q-109 0 -185.5 75.5t-76.5 182.5v990q0 107 76.5 182.5t185.5 75.5zM1444 1161q0 52 -37 87.5t-90 35.5h-834q-53 0 -90 -35.5t-37 -87.5v-878
q0 -51 37.5 -87t89.5 -36h834q52 0 89.5 36t37.5 87v878z" />
    <glyph glyph-name="seven.whitesquare" unicode="&#x37;&#x20de;" 
d="M618 1072h569v-185l-261 -507h-254l276 500v9h-330v183zM411 1475h978q109 0 185.5 -75.5t76.5 -182.5v-990q0 -107 -76.5 -182.5t-185.5 -75.5h-978q-109 0 -185.5 75.5t-76.5 182.5v990q0 107 76.5 182.5t185.5 75.5zM1444 1161q0 52 -37 87.5t-90 35.5h-834
q-53 0 -90 -35.5t-37 -87.5v-878q0 -51 37.5 -87t89.5 -36h834q52 0 89.5 36t37.5 87v878z" />
    <glyph glyph-name="eight.whitesquare" unicode="&#x38;&#x20de;" 
d="M900 520q34 0 56.5 21t22.5 53q0 33 -22.5 54.5t-56.5 21.5t-56.5 -22t-22.5 -54t22.5 -53t56.5 -21zM900 807q28 0 46 17.5t18 43.5t-18.5 44t-45.5 18t-45.5 -18t-18.5 -44t18 -43.5t46 -17.5zM900 368q-148 0 -234.5 56t-86.5 152q0 67 43 111t116 53v10
q-130 35 -130 145q0 86 79 136.5t213 50.5t213 -50.5t79 -136.5q0 -111 -130 -145v-10q73 -9 116 -53t43 -110q0 -97 -86.5 -153t-234.5 -56zM411 1475h978q109 0 185.5 -75.5t76.5 -182.5v-990q0 -107 -76.5 -182.5t-185.5 -75.5h-978q-109 0 -185.5 75.5t-76.5 182.5v990
q0 107 76.5 182.5t185.5 75.5zM1444 1161q0 52 -37 87.5t-90 35.5h-834q-53 0 -90 -35.5t-37 -87.5v-878q0 -51 37.5 -87t89.5 -36h834q52 0 89.5 36t37.5 87v878z" />
    <glyph glyph-name="nine.whitesquare" unicode="&#x39;&#x20de;" 
d="M591 813q0 122 83 196t220 74q139 0 226 -75t87 -196q0 -72 -22 -135.5t-75 -139.5q-57 -81 -124 -159h-276q94 100 171 207q21 30 32 48l-10 1q-47 -29 -104 -29q-89 0 -148.5 59.5t-59.5 148.5zM971 828q0 32 -21 53t-55 21t-55 -21t-21 -53t21 -53t55 -21t55 21t21 53
zM411 1475h978q109 0 185.5 -75.5t76.5 -182.5v-990q0 -107 -76.5 -182.5t-185.5 -75.5h-978q-109 0 -185.5 75.5t-76.5 182.5v990q0 107 76.5 182.5t185.5 75.5zM1444 1161q0 52 -37 87.5t-90 35.5h-834q-53 0 -90 -35.5t-37 -87.5v-878q0 -51 37.5 -87t89.5 -36h834
q52 0 89.5 36t37.5 87v878z" />
    <glyph glyph-name="plus.uc.whitesquare" unicode="&#x2b;&#x20de;" 
d="M1004 625v-207h-208v207h-202v198h202v206h208v-206h202v-198h-202zM411 1475h978q109 0 185.5 -75.5t76.5 -182.5v-990q0 -107 -76.5 -182.5t-185.5 -75.5h-978q-109 0 -185.5 75.5t-76.5 182.5v990q0 107 76.5 182.5t185.5 75.5zM1444 1161q0 52 -37 87.5t-90 35.5
h-834q-53 0 -90 -35.5t-37 -87.5v-878q0 -51 37.5 -87t89.5 -36h834q52 0 89.5 36t37.5 87v878z" />
    <glyph glyph-name="minus.uc.whitesquare" unicode="&#x2212;&#x20de;" 
d="M1170 620h-540v207h540v-207zM411 1475h978q109 0 185.5 -75.5t76.5 -182.5v-990q0 -107 -76.5 -182.5t-185.5 -75.5h-978q-109 0 -185.5 75.5t-76.5 182.5v990q0 107 76.5 182.5t185.5 75.5zM1444 1161q0 52 -37 87.5t-90 35.5h-834q-53 0 -90 -35.5t-37 -87.5v-878
q0 -51 37.5 -87t89.5 -36h834q52 0 89.5 36t37.5 87v878z" />
    <glyph glyph-name="multiply.uc.whitesquare" unicode="&#xd7;&#x20de;" 
d="M899 870l158 156l146 -146l-157 -156l157 -156l-146 -145l-158 156l-157 -156l-147 145l158 156l-158 156l147 146zM411 1475h978q109 0 185.5 -75.5t76.5 -182.5v-990q0 -107 -76.5 -182.5t-185.5 -75.5h-978q-109 0 -185.5 75.5t-76.5 182.5v990q0 107 76.5 182.5
t185.5 75.5zM1444 1161q0 52 -37 87.5t-90 35.5h-834q-53 0 -90 -35.5t-37 -87.5v-878q0 -51 37.5 -87t89.5 -36h834q52 0 89.5 36t37.5 87v878z" />
    <glyph glyph-name="divide.uc.whitesquare" unicode="&#xf7;&#x20de;" 
d="M1170 646h-540v156h540v-156zM793 955q0 41 30.5 68t76.5 27t77 -27t31 -68q0 -40 -31 -66.5t-77 -26.5t-76.5 26.5t-30.5 66.5zM793 493q0 41 30.5 67.5t76.5 26.5t77 -26.5t31 -67.5t-31 -67.5t-77 -26.5t-76.5 26.5t-30.5 67.5zM411 1475h978q109 0 185.5 -75.5
t76.5 -182.5v-990q0 -107 -76.5 -182.5t-185.5 -75.5h-978q-109 0 -185.5 75.5t-76.5 182.5v990q0 107 76.5 182.5t185.5 75.5zM1444 1161q0 52 -37 87.5t-90 35.5h-834q-53 0 -90 -35.5t-37 -87.5v-878q0 -51 37.5 -87t89.5 -36h834q52 0 89.5 36t37.5 87v878z" />
    <glyph glyph-name="equal.uc.whitesquare" unicode="&#x3d;&#x20de;" 
d="M1189 494h-577v179h577v-179zM1189 772h-577v179h577v-179zM411 1475h978q109 0 185.5 -75.5t76.5 -182.5v-990q0 -107 -76.5 -182.5t-185.5 -75.5h-978q-109 0 -185.5 75.5t-76.5 182.5v990q0 107 76.5 182.5t185.5 75.5zM1444 1161q0 52 -37 87.5t-90 35.5h-834
q-53 0 -90 -35.5t-37 -87.5v-878q0 -51 37.5 -87t89.5 -36h834q52 0 89.5 36t37.5 87v878z" />
    <glyph glyph-name="greater.uc.whitesquare" unicode="&#x3e;&#x20de;" 
d="M1198 784v-123l-542 -255v215l257 100v9l-257 90v222zM411 1475h978q109 0 185.5 -75.5t76.5 -182.5v-990q0 -107 -76.5 -182.5t-185.5 -75.5h-978q-109 0 -185.5 75.5t-76.5 182.5v990q0 107 76.5 182.5t185.5 75.5zM1444 1161q0 52 -37 87.5t-90 35.5h-834
q-53 0 -90 -35.5t-37 -87.5v-878q0 -51 37.5 -87t89.5 -36h834q52 0 89.5 36t37.5 87v878z" />
    <glyph glyph-name="less.uc.whitesquare" unicode="&#x3c;&#x20de;" 
d="M602 661v123l542 258v-222l-257 -90v-9l257 -100v-215zM411 1475h978q109 0 185.5 -75.5t76.5 -182.5v-990q0 -107 -76.5 -182.5t-185.5 -75.5h-978q-109 0 -185.5 75.5t-76.5 182.5v990q0 107 76.5 182.5t185.5 75.5zM1444 1161q0 52 -37 87.5t-90 35.5h-834
q-53 0 -90 -35.5t-37 -87.5v-878q0 -51 37.5 -87t89.5 -36h834q52 0 89.5 36t37.5 87v878z" />
    <glyph glyph-name="numbersign.whitesquare" unicode="&#x23;&#x20de;" 
d="M1198 767h-93l-14 -76h95l-30 -150h-96l-34 -163h-159l31 163h-72l-33 -163h-161l34 163h-92l29 150h92l16 76h-95l29 151h93l30 153h161l-31 -153h74l29 153h161l-29 -153h93zM859 781l-22 -113h105l20 113h-103zM411 1475h978q109 0 185.5 -75.5t76.5 -182.5v-990
q0 -107 -76.5 -182.5t-185.5 -75.5h-978q-109 0 -185.5 75.5t-76.5 182.5v990q0 107 76.5 182.5t185.5 75.5zM1444 1161q0 52 -37 87.5t-90 35.5h-834q-53 0 -90 -35.5t-37 -87.5v-878q0 -51 37.5 -87t89.5 -36h834q52 0 89.5 36t37.5 87v878z" />
    <glyph glyph-name="uni25BC.whitesquare" unicode="&#x25bc;&#x20de;" 
d="M1236 947l-336 -581l-334 581h670zM411 1475h978q109 0 185.5 -75.5t76.5 -182.5v-990q0 -107 -76.5 -182.5t-185.5 -75.5h-978q-109 0 -185.5 75.5t-76.5 182.5v990q0 107 76.5 182.5t185.5 75.5zM1444 1161q0 52 -37 87.5t-90 35.5h-834q-53 0 -90 -35.5t-37 -87.5
v-878q0 -51 37.5 -87t89.5 -36h834q52 0 89.5 36t37.5 87v878z" />
    <glyph glyph-name="uni25B2.whitesquare" unicode="&#x25b2;&#x20de;" 
d="M1235 500h-669l334 581zM411 1475h978q109 0 185.5 -75.5t76.5 -182.5v-990q0 -107 -76.5 -182.5t-185.5 -75.5h-978q-109 0 -185.5 75.5t-76.5 182.5v990q0 107 76.5 182.5t185.5 75.5zM1444 1161q0 52 -37 87.5t-90 35.5h-834q-53 0 -90 -35.5t-37 -87.5v-878
q0 -51 37.5 -87t89.5 -36h834q52 0 89.5 36t37.5 87v878z" />
    <glyph glyph-name="uni25C0.whitesquare" unicode="&#x25c0;&#x20de;" 
d="M1120 392l-581 335l581 335v-670zM411 1475h978q109 0 185.5 -75.5t76.5 -182.5v-990q0 -107 -76.5 -182.5t-185.5 -75.5h-978q-109 0 -185.5 75.5t-76.5 182.5v990q0 107 76.5 182.5t185.5 75.5zM1444 1161q0 52 -37 87.5t-90 35.5h-834q-53 0 -90 -35.5t-37 -87.5v-878
q0 -51 37.5 -87t89.5 -36h834q52 0 89.5 36t37.5 87v878z" />
    <glyph glyph-name="uni25B6.whitesquare" unicode="&#x25b6;&#x20de;" 
d="M680 392v670l581 -335zM411 1475h978q109 0 185.5 -75.5t76.5 -182.5v-990q0 -107 -76.5 -182.5t-185.5 -75.5h-978q-109 0 -185.5 75.5t-76.5 182.5v990q0 107 76.5 182.5t185.5 75.5zM1444 1161q0 52 -37 87.5t-90 35.5h-834q-53 0 -90 -35.5t-37 -87.5v-878
q0 -51 37.5 -87t89.5 -36h834q52 0 89.5 36t37.5 87v878z" />
    <glyph glyph-name="question.whitesquare" unicode="&#x3f;&#x20de;" 
d="M766 464q0 46 34 71.5t94 25.5t94 -26t34 -71q0 -46 -33.5 -71t-94.5 -25q-60 0 -94 25t-34 71zM641 858q0 110 73.5 166t205.5 56q116 0 187.5 -55.5t71.5 -150.5q0 -56 -24.5 -94.5t-75.5 -70.5q-63 -40 -79 -56.5t-16 -41.5v-7h-197q-3 8 -3 31q-1 92 82 144
q46 29 64.5 47.5t18.5 38.5q0 22 -14.5 34.5t-36.5 12.5q-21 0 -35.5 -15.5t-16.5 -38.5h-205zM411 1475h978q109 0 185.5 -75.5t76.5 -182.5v-990q0 -107 -76.5 -182.5t-185.5 -75.5h-978q-109 0 -185.5 75.5t-76.5 182.5v990q0 107 76.5 182.5t185.5 75.5zM1444 1161
q0 52 -37 87.5t-90 35.5h-834q-53 0 -90 -35.5t-37 -87.5v-878q0 -51 37.5 -87t89.5 -36h834q52 0 89.5 36t37.5 87v878z" />
    <glyph glyph-name="exclam.whitesquare" unicode="&#x21;&#x20de;" 
d="M777 464q0 46 34.5 71.5t94.5 25.5t93.5 -26t33.5 -71q0 -46 -33 -71t-94 -25q-60 0 -94.5 25.5t-34.5 70.5zM780 1072h251l-27 -458h-198zM411 1475h978q109 0 185.5 -75.5t76.5 -182.5v-990q0 -107 -76.5 -182.5t-185.5 -75.5h-978q-109 0 -185.5 75.5t-76.5 182.5v990
q0 107 76.5 182.5t185.5 75.5zM1444 1161q0 52 -37 87.5t-90 35.5h-834q-53 0 -90 -35.5t-37 -87.5v-878q0 -51 37.5 -87t89.5 -36h834q52 0 89.5 36t37.5 87v878z" />
    <glyph glyph-name="uni2717.whitesquare" unicode="&#x2717;&#x20de;" 
d="M903 862l209 207l138 -138l-207 -208l207 -208l-138 -139l-209 207l-209 -208l-138 138l209 210l-208 208l138 139zM411 1475h978q109 0 185.5 -75.5t76.5 -182.5v-990q0 -107 -76.5 -182.5t-185.5 -75.5h-978q-109 0 -185.5 75.5t-76.5 182.5v990q0 107 76.5 182.5
t185.5 75.5zM1444 1161q0 52 -37 87.5t-90 35.5h-834q-53 0 -90 -35.5t-37 -87.5v-878q0 -51 37.5 -87t89.5 -36h834q52 0 89.5 36t37.5 87v878z" />
    <glyph glyph-name="uni2713.whitesquare" unicode="&#x2713;&#x20de;" 
d="M1330 890l-541 -528l-323 318l144 141l183 -182l398 397zM411 1475h978q109 0 185.5 -75.5t76.5 -182.5v-990q0 -107 -76.5 -182.5t-185.5 -75.5h-978q-109 0 -185.5 75.5t-76.5 182.5v990q0 107 76.5 182.5t185.5 75.5zM1444 1161q0 52 -37 87.5t-90 35.5h-834
q-53 0 -90 -35.5t-37 -87.5v-878q0 -51 37.5 -87t89.5 -36h834q52 0 89.5 36t37.5 87v878z" />
    <glyph glyph-name="plus.uc.blackcircle" unicode="&#x2b;&#x20dd;&#x25cf;" 
d="M1012 615h218v215h-218v221h-224v-221h-218v-215h218v-222h224v222zM900 -55q-157 0 -301 62t-248 166t-165.5 248t-61.5 301q0 105 28 205.5t78 185.5t122 157t157 122t185.5 78t205.5 28t205.5 -28t185.5 -78t157 -122t122 -157t78 -185.5t28 -205.5q0 -157 -61.5 -301
t-165.5 -248t-248 -166t-301 -62z" />
    <glyph glyph-name="minus.uc.blackcircle" unicode="&#x2212;&#x20dd;&#x25cf;" 
d="M1192 610v223h-584v-223h584zM900 -55q-157 0 -301 62t-248 166t-165.5 248t-61.5 301q0 105 28 205.5t78 185.5t122 157t157 122t185.5 78t205.5 28t205.5 -28t185.5 -78t157 -122t122 -157t78 -185.5t28 -205.5q0 -157 -61.5 -301t-165.5 -248t-248 -166t-301 -62z" />
    <glyph glyph-name="multiply.uc.blackcircle" unicode="&#xd7;&#x20dd;&#x25cf;" 
d="M899 881l-169 168l-159 -158l169 -168l-169 -168l159 -158l169 168l170 -168l159 158l-170 168l170 168l-159 158zM900 -55q-157 0 -301 62t-248 166t-165.5 248t-61.5 301q0 105 28 205.5t78 185.5t122 157t157 122t185.5 78t205.5 28t205.5 -28t185.5 -78t157 -122
t122 -157t78 -185.5t28 -205.5q0 -157 -61.5 -301t-165.5 -248t-248 -166t-301 -62z" />
    <glyph glyph-name="divide.uc.blackcircle" unicode="&#xf7;&#x20dd;&#x25cf;" 
d="M784 971q0 -44 33 -72.5t83 -28.5t83.5 28.5t33.5 72.5q0 45 -33.5 74t-83.5 29t-83 -29t-33 -74zM1192 637v170h-584v-170h584zM784 474q0 -44 33 -73t83 -29t83.5 29t33.5 73q0 45 -33.5 74t-83.5 29t-83 -29t-33 -74zM900 -55q-157 0 -301 62t-248 166t-165.5 248
t-61.5 301q0 105 28 205.5t78 185.5t122 157t157 122t185.5 78t205.5 28t205.5 -28t185.5 -78t157 -122t122 -157t78 -185.5t28 -205.5q0 -157 -61.5 -301t-165.5 -248t-248 -166t-301 -62z" />
    <glyph glyph-name="equal.uc.blackcircle" unicode="&#x3d;&#x20dd;&#x25cf;" 
d="M1211 778v191h-622v-191h622zM1211 473v190h-622v-190h622zM900 -55q-157 0 -301 62t-248 166t-165.5 248t-61.5 301q0 105 28 205.5t78 185.5t122 157t157 122t185.5 78t205.5 28t205.5 -28t185.5 -78t157 -122t122 -157t78 -185.5t28 -205.5q0 -157 -61.5 -301
t-165.5 -248t-248 -166t-301 -62z" />
    <glyph glyph-name="greater.uc.blackcircle" unicode="&#x3e;&#x20dd;&#x25cf;" 
d="M1216 788l-586 280v-229l276 -114v-4l-276 -124v-220l586 276v135zM900 -55q-157 0 -301 62t-248 166t-165.5 248t-61.5 301q0 105 28 205.5t78 185.5t122 157t157 122t185.5 78t205.5 28t205.5 -28t185.5 -78t157 -122t122 -157t78 -185.5t28 -205.5q0 -157 -61.5 -301
t-165.5 -248t-248 -166t-301 -62z" />
    <glyph glyph-name="less.uc.blackcircle" unicode="&#x3c;&#x20dd;&#x25cf;" 
d="M582 653l586 -276v220l-276 124v4l276 114v229l-586 -280v-135zM900 -55q-157 0 -301 62t-248 166t-165.5 248t-61.5 301q0 105 28 205.5t78 185.5t122 157t157 122t185.5 78t205.5 28t205.5 -28t185.5 -78t157 -122t122 -157t78 -185.5t28 -205.5q0 -157 -61.5 -301
t-165.5 -248t-248 -166t-301 -62z" />
    <glyph glyph-name="numbersign.blackcircle" unicode="&#x23;&#x20dd;&#x25cf;" 
d="M846 794h129l-27 -139h-130zM1219 767l32 167h-100l31 164h-180l-31 -164h-71l33 164h-180l-31 -164h-101l-32 -167h102l-16 -74h-98l-34 -168h98l-33 -174h177l36 174h70l-34 -174h178l35 174h104l33 168h-102q2 8 7.5 38t6.5 36h100zM900 -55q-157 0 -301 62t-248 166
t-165.5 248t-61.5 301q0 105 28 205.5t78 185.5t122 157t157 122t185.5 78t205.5 28t205.5 -28t185.5 -78t157 -122t122 -157t78 -185.5t28 -205.5q0 -157 -61.5 -301t-165.5 -248t-248 -166t-301 -62z" />
    <glyph glyph-name="uni25BC.blackcircle" unicode="&#x25bc;&#x20dd;&#x25cf;" 
d="M1251 982h-701l350 -608zM900 -55q-157 0 -301 62t-248 166t-165.5 248t-61.5 301q0 105 28 205.5t78 185.5t122 157t157 122t185.5 78t205.5 28t205.5 -28t185.5 -78t157 -122t122 -157t78 -185.5t28 -205.5q0 -157 -61.5 -301t-165.5 -248t-248 -166t-301 -62z" />
    <glyph glyph-name="uni25B2.blackcircle" unicode="&#x25b2;&#x20dd;&#x25cf;" 
d="M1251 485l-351 608l-350 -608h701zM900 -55q-157 0 -301 62t-248 166t-165.5 248t-61.5 301q0 105 28 205.5t78 185.5t122 157t157 122t185.5 78t205.5 28t205.5 -28t185.5 -78t157 -122t122 -157t78 -185.5t28 -205.5q0 -157 -61.5 -301t-165.5 -248t-248 -166t-301 -62
z" />
    <glyph glyph-name="uni25C0.blackcircle" unicode="&#x25c0;&#x20dd;&#x25cf;" 
d="M1133 384v699l-608 -349zM900 -55q-157 0 -301 62t-248 166t-165.5 248t-61.5 301q0 105 28 205.5t78 185.5t122 157t157 122t185.5 78t205.5 28t205.5 -28t185.5 -78t157 -122t122 -157t78 -185.5t28 -205.5q0 -157 -61.5 -301t-165.5 -248t-248 -166t-301 -62z" />
    <glyph glyph-name="uni25B6.blackcircle" unicode="&#x25b6;&#x20dd;&#x25cf;" 
d="M667 384l608 350l-608 349v-699zM900 -55q-157 0 -301 62t-248 166t-165.5 248t-61.5 301q0 105 28 205.5t78 185.5t122 157t157 122t185.5 78t205.5 28t205.5 -28t185.5 -78t157 -122t122 -157t78 -185.5t28 -205.5q0 -157 -61.5 -301t-165.5 -248t-248 -166t-301 -62z
" />
    <glyph glyph-name="question.blackcircle" unicode="&#x3f;&#x20dd;&#x25cf;" 
d="M750 429q0 -52 36.5 -80t103.5 -28q66 0 102.5 28.5t36.5 79.5q0 50 -37 78.5t-102 28.5q-67 0 -103.5 -27.5t-36.5 -79.5zM771 592h218v8q0 29 14.5 44.5t68.5 48.5q74 47 99.5 83.5t25.5 106.5q0 102 -78 164t-202 62q-144 0 -222.5 -61.5t-78.5 -183.5v-1l230 5
q0 30 14 47.5t38 17.5q54 0 54 -55q0 -25 -21 -43t-56 -40.5t-54 -44.5q-56 -54 -53 -122q0 -27 3 -36zM900 -55q-157 0 -301 62t-248 166t-165.5 248t-61.5 301q0 105 28 205.5t78 185.5t122 157t157 122t185.5 78t205.5 28t205.5 -28t185.5 -78t157 -122t122 -157
t78 -185.5t28 -205.5q0 -157 -61.5 -301t-165.5 -248t-248 -166t-301 -62z" />
    <glyph glyph-name="exclam.blackcircle" unicode="&#x21;&#x20dd;&#x25cf;" 
d="M765 1100l28 -498h218l30 498h-276zM764 429q0 -51 37 -79t103 -28q67 0 103 28t36 79q0 50 -36.5 78.5t-102.5 28.5t-103 -28t-37 -79zM900 -55q-157 0 -301 62t-248 166t-165.5 248t-61.5 301q0 105 28 205.5t78 185.5t122 157t157 122t185.5 78t205.5 28t205.5 -28
t185.5 -78t157 -122t122 -157t78 -185.5t28 -205.5q0 -157 -61.5 -301t-165.5 -248t-248 -166t-301 -62z" />
    <glyph glyph-name="uni2717.blackcircle" unicode="&#x2717;&#x20dd;&#x25cf;" 
d="M899 870l-222 223l-150 -150l223 -223l-224 -225l150 -150l223 224l223 -222l151 151l-223 222l223 223l-151 150zM900 -55q-157 0 -301 62t-248 166t-165.5 248t-61.5 301q0 105 28 205.5t78 185.5t122 157t157 122t185.5 78t205.5 28t205.5 -28t185.5 -78t157 -122
t122 -157t78 -185.5t28 -205.5q0 -157 -61.5 -301t-165.5 -248t-248 -166t-301 -62z" />
    <glyph glyph-name="uni2713.blackcircle" unicode="&#x2713;&#x20dd;&#x25cf;" 
d="M776 351l590 575l-156 161l-430 -431l-198 198l-159 -156zM900 -55q-157 0 -301 62t-248 166t-165.5 248t-61.5 301q0 105 28 205.5t78 185.5t122 157t157 122t185.5 78t205.5 28t205.5 -28t185.5 -78t157 -122t122 -157t78 -185.5t28 -205.5q0 -157 -61.5 -301
t-165.5 -248t-248 -166t-301 -62z" />
    <glyph glyph-name="zero.blacksquare" unicode="&#x30;&#x20de;&#x25a0;" 
d="M899 524q-82 0 -82 200q0 199 82 199t82 -199q0 -200 -82 -200zM896 338q152 0 242.5 103t90.5 283q0 179 -90.5 282t-242.5 103q-151 0 -238.5 -102.5t-87.5 -282.5q0 -181 87.5 -283.5t238.5 -102.5zM411 1475h978q109 0 185.5 -75.5t76.5 -182.5v-990
q0 -107 -76.5 -182.5t-185.5 -75.5h-978q-109 0 -185.5 75.5t-76.5 182.5v990q0 107 76.5 182.5t185.5 75.5z" />
    <glyph glyph-name="one.blacksquare" unicode="&#x31;&#x20de;&#x25a0;" 
d="M1070 351v746h-260l-178 -116v-224l169 113h8v-519h261zM411 1475h978q109 0 185.5 -75.5t76.5 -182.5v-990q0 -107 -76.5 -182.5t-185.5 -75.5h-978q-109 0 -185.5 75.5t-76.5 182.5v990q0 107 76.5 182.5t185.5 75.5z" />
    <glyph glyph-name="two.blacksquare" unicode="&#x32;&#x20de;&#x25a0;" 
d="M817 834v3q0 40 18.5 63t51.5 23q29 0 46.5 -15.5t17.5 -41.5q0 -31 -21.5 -60.5t-78.5 -80.5l-247 -216v-160h602v203h-268v4l105 94q78 66 112.5 119.5t34.5 116.5q0 94 -81.5 158t-203.5 64q-145 0 -231 -75t-86 -196v-3h229zM411 1475h978q109 0 185.5 -75.5
t76.5 -182.5v-990q0 -107 -76.5 -182.5t-185.5 -75.5h-978q-109 0 -185.5 75.5t-76.5 182.5v990q0 107 76.5 182.5t185.5 75.5z" />
    <glyph glyph-name="three.blacksquare" unicode="&#x33;&#x20de;&#x25a0;" 
d="M816 644h76q39 0 62 -16.5t24 -44.5q0 -28 -23 -44.5t-61 -16.5q-41 0 -65 19.5t-26 52.5h-233q1 -112 90 -183.5t233 -71.5q148 0 238 61.5t90 165.5q-1 70 -47 119t-110 55v8q55 8 96.5 52.5t41.5 103.5q-1 92 -85.5 148.5t-222.5 56.5q-153 -1 -234 -66t-86 -188h234
q0 34 21.5 54t60.5 20q31 0 51.5 -16.5t20.5 -40.5q0 -27 -20.5 -43t-54.5 -16h-71v-169zM411 1475h978q109 0 185.5 -75.5t76.5 -182.5v-990q0 -107 -76.5 -182.5t-185.5 -75.5h-978q-109 0 -185.5 75.5t-76.5 182.5v990q0 107 76.5 182.5t185.5 75.5z" />
    <glyph glyph-name="four.blacksquare" unicode="&#x34;&#x20de;&#x25a0;" 
d="M788 1097q-151 -264 -235 -445v-191h366v-110h212v110h103v191h-103v445h-343zM773 653q40 90 132 267h14v-268h-146v1zM411 1475h978q109 0 185.5 -75.5t76.5 -182.5v-990q0 -107 -76.5 -182.5t-185.5 -75.5h-978q-109 0 -185.5 75.5t-76.5 182.5v990q0 107 76.5 182.5
t185.5 75.5z" />
    <glyph glyph-name="five.blacksquare" unicode="&#x35;&#x20de;&#x25a0;" 
d="M592 593q2 -110 89 -178.5t227 -68.5q150 0 237.5 74.5t87.5 204.5q0 110 -67.5 175t-178.5 65q-58 0 -102 -20t-61 -52h-8q7 118 10 139h354v174h-547l-27 -452h220q10 22 32.5 36.5t50.5 14.5q39 0 64 -24.5t25 -64.5t-25.5 -65t-63.5 -25q-34 0 -59 18.5t-30 48.5
h-228zM411 1475h978q109 0 185.5 -75.5t76.5 -182.5v-990q0 -107 -76.5 -182.5t-185.5 -75.5h-978q-109 0 -185.5 75.5t-76.5 182.5v990q0 107 76.5 182.5t185.5 75.5z" />
    <glyph glyph-name="six.blacksquare" unicode="&#x36;&#x20de;&#x25a0;" 
d="M1232 629q0 95 -64 159.5t-159 64.5q-59 0 -113 -31l-11 1q8 14 30 45q77 109 189 229h-296q-71 -81 -135 -173q-56 -81 -79.5 -149t-23.5 -144q0 -130 93.5 -211.5t242.5 -81.5q148 0 237 79.5t89 211.5zM813 612q0 39 25.5 65t66.5 26t67 -25.5t26 -65.5
q0 -39 -26 -64.5t-67 -25.5t-66.5 25.5t-25.5 64.5zM411 1475h978q109 0 185.5 -75.5t76.5 -182.5v-990q0 -107 -76.5 -182.5t-185.5 -75.5h-978q-109 0 -185.5 75.5t-76.5 182.5v990q0 107 76.5 182.5t185.5 75.5z" />
    <glyph glyph-name="seven.blacksquare" unicode="&#x37;&#x20de;&#x25a0;" 
d="M591 1097v-202h353v-3l-298 -541h279l281 545v201h-615zM411 1475h978q109 0 185.5 -75.5t76.5 -182.5v-990q0 -107 -76.5 -182.5t-185.5 -75.5h-978q-109 0 -185.5 75.5t-76.5 182.5v990q0 107 76.5 182.5t185.5 75.5z" />
    <glyph glyph-name="eight.blacksquare" unicode="&#x38;&#x20de;&#x25a0;" 
d="M899 800q-35 0 -56.5 21t-21.5 55t21.5 56t56.5 22t57 -21.5t22 -56.5q0 -34 -22 -55t-57 -21zM899 495q-41 0 -67 24.5t-26 64.5q0 39 26 64t67 25t67.5 -25t26.5 -64q0 -40 -26.5 -64.5t-67.5 -24.5zM899 338q161 0 254 60.5t93 166.5q0 71 -45.5 118.5t-124.5 58.5v4
q138 40 138 158q0 94 -85 149.5t-230 55.5t-229.5 -55t-84.5 -150q0 -119 138 -158v-4q-79 -11 -124.5 -58.5t-45.5 -118.5q0 -106 93 -166.5t253 -60.5zM411 1475h978q109 0 185.5 -75.5t76.5 -182.5v-990q0 -107 -76.5 -182.5t-185.5 -75.5h-978q-109 0 -185.5 75.5
t-76.5 182.5v990q0 107 76.5 182.5t185.5 75.5z" />
    <glyph glyph-name="nine.blacksquare" unicode="&#x39;&#x20de;&#x25a0;" 
d="M565 819q0 -95 64 -159.5t159 -64.5q60 0 113 31l11 -1q-16 -26 -34 -51q-77 -107 -185 -224h296q71 83 133 170q57 82 81 151t24 146q0 131 -93 212t-243 81q-148 0 -237 -79.5t-89 -211.5zM985 835q0 -39 -26 -64.5t-67 -25.5t-67 25.5t-26 64.5t26 65t67 26t67 -26
t26 -65zM411 1475h978q109 0 185.5 -75.5t76.5 -182.5v-990q0 -107 -76.5 -182.5t-185.5 -75.5h-978q-109 0 -185.5 75.5t-76.5 182.5v990q0 107 76.5 182.5t185.5 75.5z" />
    <glyph glyph-name="plus.uc.blacksquare" unicode="&#x2b;&#x20de;&#x25a0;" 
d="M1012 615h218v215h-218v221h-224v-221h-218v-215h218v-222h224v222zM411 1475h978q109 0 185.5 -75.5t76.5 -182.5v-990q0 -107 -76.5 -182.5t-185.5 -75.5h-978q-109 0 -185.5 75.5t-76.5 182.5v990q0 107 76.5 182.5t185.5 75.5z" />
    <glyph glyph-name="minus.uc.blacksquare" unicode="&#x2212;&#x20de;&#x25a0;" 
d="M1192 610v223h-584v-223h584zM411 1475h978q109 0 185.5 -75.5t76.5 -182.5v-990q0 -107 -76.5 -182.5t-185.5 -75.5h-978q-109 0 -185.5 75.5t-76.5 182.5v990q0 107 76.5 182.5t185.5 75.5z" />
    <glyph glyph-name="multiply.uc.blacksquare" unicode="&#xd7;&#x20de;&#x25a0;" 
d="M899 881l-169 168l-159 -158l169 -168l-169 -168l159 -158l169 168l170 -168l159 158l-170 168l170 168l-159 158zM411 1475h978q109 0 185.5 -75.5t76.5 -182.5v-990q0 -107 -76.5 -182.5t-185.5 -75.5h-978q-109 0 -185.5 75.5t-76.5 182.5v990q0 107 76.5 182.5
t185.5 75.5z" />
    <glyph glyph-name="divide.uc.blacksquare" unicode="&#xf7;&#x20de;&#x25a0;" 
d="M784 971q0 -44 33 -72.5t83 -28.5t83.5 28.5t33.5 72.5q0 45 -33.5 74t-83.5 29t-83 -29t-33 -74zM1192 637v170h-584v-170h584zM784 474q0 -44 33 -73t83 -29t83.5 29t33.5 73q0 45 -33.5 74t-83.5 29t-83 -29t-33 -74zM411 1475h978q109 0 185.5 -75.5t76.5 -182.5
v-990q0 -107 -76.5 -182.5t-185.5 -75.5h-978q-109 0 -185.5 75.5t-76.5 182.5v990q0 107 76.5 182.5t185.5 75.5z" />
    <glyph glyph-name="equal.uc.blacksquare" unicode="&#x3d;&#x20de;&#x25a0;" 
d="M1211 778v191h-622v-191h622zM1211 473v190h-622v-190h622zM411 1475h978q109 0 185.5 -75.5t76.5 -182.5v-990q0 -107 -76.5 -182.5t-185.5 -75.5h-978q-109 0 -185.5 75.5t-76.5 182.5v990q0 107 76.5 182.5t185.5 75.5z" />
    <glyph glyph-name="greater.uc.blacksquare" unicode="&#x3e;&#x20de;&#x25a0;" 
d="M1216 788l-586 280v-229l276 -114v-4l-276 -124v-220l586 276v135zM411 1475h978q109 0 185.5 -75.5t76.5 -182.5v-990q0 -107 -76.5 -182.5t-185.5 -75.5h-978q-109 0 -185.5 75.5t-76.5 182.5v990q0 107 76.5 182.5t185.5 75.5z" />
    <glyph glyph-name="less.uc.blacksquare" unicode="&#x3c;&#x20de;&#x25a0;" 
d="M582 653l586 -276v220q-15 7 -138 62t-138 62v4l276 114v229l-586 -280v-135zM411 1475h978q109 0 185.5 -75.5t76.5 -182.5v-990q0 -107 -76.5 -182.5t-185.5 -75.5h-978q-109 0 -185.5 75.5t-76.5 182.5v990q0 107 76.5 182.5t185.5 75.5z" />
    <glyph glyph-name="numbersign.blacksquare" unicode="&#x23;&#x20de;&#x25a0;" 
d="M846 794h129l-27 -139h-130zM1219 767l32 167h-100l31 164h-180l-31 -164h-71l33 164h-180l-31 -164h-101l-32 -167h102l-16 -74h-98l-34 -168h98l-33 -174h177l36 174h70l-34 -174h178l35 174h104l33 168h-102q2 8 7.5 38t6.5 36h100zM411 1475h978q109 0 185.5 -75.5
t76.5 -182.5v-990q0 -107 -76.5 -182.5t-185.5 -75.5h-978q-109 0 -185.5 75.5t-76.5 182.5v990q0 107 76.5 182.5t185.5 75.5z" />
    <glyph glyph-name="uni25BC.blacksquare" unicode="&#x25bc;&#x20de;&#x25a0;" 
d="M1251 980h-701l350 -607zM411 1475h978q109 0 185.5 -75.5t76.5 -182.5v-990q0 -107 -76.5 -182.5t-185.5 -75.5h-978q-109 0 -185.5 75.5t-76.5 182.5v990q0 107 76.5 182.5t185.5 75.5z" />
    <glyph glyph-name="uni25B2.blacksquare" unicode="&#x25b2;&#x20de;&#x25a0;" 
d="M1251 485l-351 608l-350 -608h701zM411 1475h978q109 0 185.5 -75.5t76.5 -182.5v-990q0 -107 -76.5 -182.5t-185.5 -75.5h-978q-109 0 -185.5 75.5t-76.5 182.5v990q0 107 76.5 182.5t185.5 75.5z" />
    <glyph glyph-name="uni25C0.blacksquare" unicode="&#x25c0;&#x20de;&#x25a0;" 
d="M1133 384v699l-608 -349zM411 1475h978q109 0 185.5 -75.5t76.5 -182.5v-990q0 -107 -76.5 -182.5t-185.5 -75.5h-978q-109 0 -185.5 75.5t-76.5 182.5v990q0 107 76.5 182.5t185.5 75.5z" />
    <glyph glyph-name="uni25B6.blacksquare" unicode="&#x25b6;&#x20de;&#x25a0;" 
d="M667 384l608 350l-608 349v-699zM411 1475h978q109 0 185.5 -75.5t76.5 -182.5v-990q0 -107 -76.5 -182.5t-185.5 -75.5h-978q-109 0 -185.5 75.5t-76.5 182.5v990q0 107 76.5 182.5t185.5 75.5z" />
    <glyph glyph-name="question.blacksquare" unicode="&#x3f;&#x20de;&#x25a0;" 
d="M750 429q0 -52 36.5 -80t103.5 -28q66 0 102.5 28.5t36.5 79.5q0 50 -37 78.5t-102 28.5q-67 0 -103.5 -27.5t-36.5 -79.5zM917 1109q-144 0 -222.5 -61.5t-78.5 -183.5v-1l230 5q0 30 14 47.5t38 17.5q54 0 54 -55q0 -25 -21 -43t-56 -40.5t-54 -44.5q-56 -54 -53 -122
q0 -27 3 -36h218v8q0 29 14.5 44.5t68.5 48.5q74 47 99.5 83.5t25.5 106.5q0 102 -78 164t-202 62zM411 1475h978q109 0 185.5 -75.5t76.5 -182.5v-990q0 -107 -76.5 -182.5t-185.5 -75.5h-978q-109 0 -185.5 75.5t-76.5 182.5v990q0 107 76.5 182.5t185.5 75.5z" />
    <glyph glyph-name="exclam.blacksquare" unicode="&#x21;&#x20de;&#x25a0;" 
d="M765 1100l28 -498h218l30 498h-276zM764 429q0 -51 37 -79t103 -28q67 0 103 28t36 79q0 50 -36.5 78.5t-102.5 28.5t-103 -28t-37 -79zM411 1475h978q109 0 185.5 -75.5t76.5 -182.5v-990q0 -107 -76.5 -182.5t-185.5 -75.5h-978q-109 0 -185.5 75.5t-76.5 182.5v990
q0 107 76.5 182.5t185.5 75.5z" />
    <glyph glyph-name="uni2717.blacksquare" unicode="&#x2717;&#x20de;&#x25a0;" 
d="M527 943l223 -223l-224 -225l150 -150l223 224l223 -222l151 151l-223 222l223 223l-151 150l-223 -223l-222 223zM411 1475h978q109 0 185.5 -75.5t76.5 -182.5v-990q0 -107 -76.5 -182.5t-185.5 -75.5h-978q-109 0 -185.5 75.5t-76.5 182.5v990q0 107 76.5 182.5
t185.5 75.5z" />
    <glyph glyph-name="uni2713.blacksquare" unicode="&#x2713;&#x20de;&#x25a0;" 
d="M776 351l590 575l-156 161l-430 -431l-198 198l-159 -156zM411 1475h978q109 0 185.5 -75.5t76.5 -182.5v-990q0 -107 -76.5 -182.5t-185.5 -75.5h-978q-109 0 -185.5 75.5t-76.5 182.5v990q0 107 76.5 182.5t185.5 75.5z" />
    <glyph glyph-name=".notdef" horiz-adv-x="2048" 
d="M100 -494v165h1848v-165h-1848zM100 -38v165h1848v-165h-1848zM100 418v165h1848v-165h-1848zM100 873v165h1848v-165h-1848zM100 1329v165h1848v-165h-1848zM100 1785v165h1848v-165h-1848z" />
    <glyph glyph-name=".null" horiz-adv-x="0" 
 />
    <glyph glyph-name="nonmarkingreturn" horiz-adv-x="0" 
 />
    <glyph glyph-name="space" unicode=" " horiz-adv-x="502" 
 />
    <glyph glyph-name="exclam" unicode="!" horiz-adv-x="778" 
d="M197 1443h384l-32 -970h-320zM389 -35q-97 0 -150.5 48t-53.5 134q0 87 53.5 135t150.5 48t151 -48t54 -135q0 -86 -54 -134t-151 -48z" />
    <glyph glyph-name="quotedbl" unicode="&#x22;" horiz-adv-x="1079" 
d="M435 802h-298v641h298v-641zM942 802h-297v641h297v-641z" />
    <glyph glyph-name="numbersign" unicode="#" horiz-adv-x="1394" 
d="M660 0l74 368h-224l-73 -368h-262l72 368h-220l48 253h222l44 221h-222l48 251h223l70 351h262l-68 -351h222l70 351h264l-70 -351h230l-48 -251h-232l-44 -221h231l-48 -253h-233l-72 -368h-264zM533 594h264l57 274h-266z" />
    <glyph glyph-name="dollar" unicode="$" horiz-adv-x="1461" 
d="M811 -135h-143v123q-252 13 -391.5 125.5t-140.5 302.5h347q4 -65 55.5 -111t129.5 -54v316l-119 25q-190 42 -288.5 147t-98.5 268q0 193 132.5 309t373.5 133v135h143v-136q221 -21 351.5 -137t132.5 -293h-336q-2 58 -44 103.5t-104 55.5v-305l119 -22
q395 -75 395 -411q0 -196 -133.5 -312.5t-380.5 -136.5v-125zM982 398q0 113 -171 144v-291q80 7 125.5 46t45.5 101zM514 1042q0 -109 154 -141v277q-68 -4 -111 -42t-43 -94z" />
    <glyph glyph-name="percent" unicode="%" horiz-adv-x="1748" 
d="M765 1106q0 -169 -97 -271t-257 -102t-257 102t-97 271t97 271t257 102q161 0 257.5 -102t96.5 -271zM411 950q45 0 71 42t26 115q0 75 -25.5 116t-71.5 41t-72 -41.5t-26 -115.5q0 -73 26 -115t72 -42zM577 0h-334l542 757l396 686h333l-551 -761zM1691 338
q0 -169 -96.5 -271.5t-256.5 -102.5t-256.5 102.5t-96.5 271.5t96.5 270.5t256.5 101.5t256.5 -101.5t96.5 -270.5zM1338 181q45 0 71 42t26 115q0 75 -25.5 116t-71.5 41t-72 -41.5t-26 -115.5q0 -73 26 -115t72 -42z" />
    <glyph glyph-name="ampersand" unicode="&#x26;" horiz-adv-x="1560" 
d="M1156 0l-100 106q-74 -63 -190 -98.5t-249 -35.5q-239 0 -377 108t-138 294q0 122 61.5 211.5t198.5 165.5q21 14 69 38q-98 100 -138.5 174.5t-40.5 153.5q0 149 123 246.5t311 97.5q187 0 304.5 -93t117.5 -241q0 -223 -284 -379l232 -249q42 72 42 214v89h285v-114
q0 -115 -33 -220.5t-91 -180.5l276 -287h-379zM550 593q-125 -76 -125 -189q0 -84 63 -135.5t166 -51.5q69 0 129.5 22.5t94.5 60.5l-291 311q-25 -10 -37 -18zM669 903q156 82 156 196q0 62 -38.5 101t-99.5 39t-101 -39.5t-40 -99.5q0 -45 27 -89t96 -108z" />
    <glyph glyph-name="quotesingle" unicode="'" horiz-adv-x="571" 
d="M435 802h-298v641h298v-641z" />
    <glyph glyph-name="parenleft" unicode="(" horiz-adv-x="929" 
d="M213 609q0 573 303 921h333q-115 -144 -192.5 -401.5t-77.5 -517.5q0 -259 77.5 -517.5t192.5 -405.5h-333q-303 354 -303 921z" />
    <glyph glyph-name="parenright" unicode=")" horiz-adv-x="929" 
d="M716 609q0 -566 -303 -921h-334q115 147 192.5 405.5t77.5 517.5q0 260 -77.5 518t-192.5 401h334q303 -348 303 -921z" />
    <glyph glyph-name="asterisk" unicode="*" horiz-adv-x="1032" 
d="M806 770l-223 188l51 -288h-236l51 288l-223 -188l-117 203l277 100l-277 99l117 203l226 -192l-54 292h236l-54 -292l226 192l117 -203l-277 -99l277 -100z" />
    <glyph glyph-name="plus" unicode="+" horiz-adv-x="1461" 
d="M886 436v-400h-311v400h-401v301h401v397h311v-397h401v-301h-401z" />
    <glyph glyph-name="comma" unicode="," horiz-adv-x="767" 
d="M370 -400h-230l90 646h336z" />
    <glyph glyph-name="hyphen" unicode="&#x2011;" horiz-adv-x="1006" 
d="M832 425h-658v316h658v-316z" />
    <glyph glyph-name="hyphen" unicode="-" horiz-adv-x="1006" 
d="M832 425h-658v316h658v-316z" />
    <glyph glyph-name="period" unicode="." horiz-adv-x="767" 
d="M383 -33q-93 0 -147 52.5t-54 137.5q0 86 54 138.5t147 52.5q94 0 148 -52.5t54 -138.5q0 -85 -54 -137.5t-148 -52.5z" />
    <glyph glyph-name="slash" unicode="/" horiz-adv-x="852" 
d="M334 -312h-334l518 1842h334z" />
    <glyph glyph-name="zero" unicode="0" horiz-adv-x="1460" 
d="M730 -39q-282 0 -444 203t-162 561q0 356 162.5 556.5t443.5 200.5t443.5 -200.5t162.5 -557.5q0 -356 -162.5 -559.5t-443.5 -203.5zM730 243q108 0 171 124t63 358q0 232 -63 353.5t-171 121.5t-170.5 -121.5t-62.5 -353.5q0 -234 62.5 -358t170.5 -124z" />
    <glyph glyph-name="one" unicode="1" horiz-adv-x="1101" 
d="M489 0v1112h-19l-348 -235v316l367 250h367v-1443h-367z" />
    <glyph glyph-name="two" unicode="2" horiz-adv-x="1361" 
d="M117 1001q0 215 154 348t405 133q242 0 390.5 -118t148.5 -310q0 -120 -79 -239.5t-271 -290.5l-238 -219v-19h608v-286h-1097v245l456 429q158 146 212 218t54 136q0 80 -54 128.5t-143 48.5q-93 0 -151.5 -57t-58.5 -146v-7h-336v6z" />
    <glyph glyph-name="three" unicode="3" horiz-adv-x="1415" 
d="M519 611v253h177q92 0 148 47.5t56 126.5t-55.5 124.5t-151.5 45.5q-94 0 -153 -51.5t-62 -136.5h-333q4 212 154.5 337t401.5 125q240 0 390 -109.5t150 -284.5q0 -124 -75.5 -214t-197.5 -113v-19q149 -16 237.5 -107.5t88.5 -230.5q0 -196 -167 -319.5t-432 -123.5
q-253 0 -410 127.5t-167 339.5h350q4 -83 66.5 -130.5t166.5 -47.5q98 0 159 50.5t61 131.5q0 83 -60 131t-165 48h-177z" />
    <glyph glyph-name="four" unicode="4" horiz-adv-x="1459" 
d="M820 0v234h-708v307q184 352 546 902h509v-923h180v-286h-180v-234h-347zM429 525v-18h400v674h-18q-176 -271 -382 -656z" />
    <glyph glyph-name="five" unicode="5" horiz-adv-x="1408" 
d="M719 -39q-248 0 -404 130t-160 329h333q13 -79 78 -127.5t156 -48.5q101 0 165 64t64 169q0 107 -64.5 173.5t-165.5 66.5q-145 0 -220 -119h-323l68 845h960v-286h-677l-27 -335h19q92 148 306 148q205 0 337.5 -136.5t132.5 -347.5q0 -235 -159 -380t-419 -145z" />
    <glyph glyph-name="six" unicode="6" horiz-adv-x="1451" 
d="M748 -38q-154 0 -276.5 60t-200.5 174q-148 195 -148 520q0 355 168 560.5t458 205.5q218 0 373.5 -115.5t184.5 -297.5h-359q-17 59 -71.5 94.5t-128.5 35.5q-133 0 -210.5 -125.5t-67.5 -325.5h19q48 101 142 155.5t219 54.5q205 0 340 -135.5t135 -341.5
q0 -228 -162 -373.5t-415 -145.5zM745 244q96 0 162 65.5t66 160.5q0 96 -65.5 160.5t-162.5 64.5t-162 -64t-65 -159q0 -96 65.5 -162t161.5 -66z" />
    <glyph glyph-name="seven" unicode="7" horiz-adv-x="1277" 
d="M203 0l599 1142v19h-706v283h1074v-284l-583 -1160h-384z" />
    <glyph glyph-name="eight" unicode="8" horiz-adv-x="1481" 
d="M739 -39q-276 0 -445.5 117t-169.5 307q0 133 89.5 233.5t238.5 135.5v19q-122 26 -196 111.5t-74 199.5q0 173 157 285.5t401 112.5t401 -112.5t157 -285.5q0 -114 -74 -199.5t-196 -111.5v-19q148 -27 238.5 -127.5t90.5 -238.5q0 -191 -170.5 -309t-447.5 -118z
M740 219q103 0 167 55.5t64 144.5t-64.5 145t-166.5 56q-103 0 -167.5 -56t-64.5 -145t64.5 -144.5t167.5 -55.5zM740 870q85 0 140.5 51t55.5 129t-55.5 129.5t-140.5 51.5q-86 0 -141.5 -51.5t-55.5 -129.5t56 -129t141 -51z" />
    <glyph glyph-name="nine" unicode="9" horiz-adv-x="1451" 
d="M701 -38q-143 0 -263.5 52t-197.5 146t-96 215h359q17 -60 71.5 -95.5t128.5 -35.5q133 0 210.5 125.5t67.5 325.5h-10h-9q-49 -101 -142.5 -155t-218.5 -54q-205 0 -340 135.5t-135 340.5q0 228 162 374t415 146q153 0 275 -60t202 -174q148 -198 148 -521
q0 -355 -168 -560t-459 -205zM706 749q97 0 162 64t65 159q0 96 -65.5 161.5t-161.5 65.5t-162 -65.5t-66 -160.5q0 -96 65 -160t163 -64z" />
    <glyph glyph-name="colon" unicode=":" horiz-adv-x="767" 
d="M383 -33q-93 0 -147 52.5t-54 137.5q0 86 54 138.5t147 52.5q94 0 148 -52.5t54 -138.5q0 -85 -54 -137.5t-148 -52.5zM383 693q-93 0 -147 52.5t-54 137.5t54 137.5t147 52.5q94 0 148 -52.5t54 -137.5t-54 -137.5t-148 -52.5z" />
    <glyph glyph-name="semicolon" unicode=";" horiz-adv-x="767" 
d="M383 693q-93 0 -147 52.5t-54 137.5t54 137.5t147 52.5q94 0 148 -52.5t54 -137.5t-54 -137.5t-148 -52.5zM368 -400h-244l97 646h336z" />
    <glyph glyph-name="less" unicode="&#x3c;" horiz-adv-x="1461" 
d="M1226 870l-630 -271v-19l630 -271v-345l-991 490v271l991 490v-345z" />
    <glyph glyph-name="equal" unicode="=" horiz-adv-x="1461" 
d="M1284 178h-1107v302h1107v-302zM1284 692h-1107v302h1107v-302z" />
    <glyph glyph-name="greater" unicode="&#x3e;" horiz-adv-x="1461" 
d="M235 870v345l991 -490v-271l-991 -490v345l630 271v19z" />
    <glyph glyph-name="question" unicode="?" horiz-adv-x="1189" 
d="M76 1023q2 198 138.5 315.5t374.5 117.5q227 0 364.5 -110t137.5 -290q0 -110 -52.5 -190.5t-163.5 -144.5q-103 -60 -139 -104t-36 -114v-47h-312l-3 40q-14 127 25 203.5t145 137.5q102 60 136.5 102t34.5 108q0 61 -44.5 99t-115.5 38q-72 0 -117.5 -44t-47.5 -117
h-325zM553 -35q-97 0 -151 48t-54 134q0 87 54 135t151 48t150.5 -48t53.5 -135q0 -86 -53.5 -134t-150.5 -48z" />
    <glyph glyph-name="at" unicode="@" horiz-adv-x="1908" 
d="M942 822q-68 0 -106.5 -55t-38.5 -153t38.5 -153t106.5 -55q69 0 108.5 55.5t39.5 152.5t-40 152.5t-108 55.5zM974 1456q238 0 422.5 -93.5t285.5 -263t101 -389.5q0 -236 -107.5 -373t-294.5 -137q-97 0 -162.5 40t-85.5 111h-19q-62 -152 -234 -152q-156 0 -251 116
t-95 306q0 182 91.5 294.5t239.5 112.5q81 0 142 -37t91 -105h19v118h230v-508q0 -53 22.5 -83t63.5 -30q66 0 105 82t39 221q0 271 -164.5 432.5t-441.5 161.5q-288 0 -467.5 -184t-179.5 -479q0 -299 185 -473t503 -174q148 0 239 28v-178q-114 -30 -261 -30
q-259 0 -457 103.5t-306.5 292.5t-108.5 436q0 244 108 434t303 295t445 105z" />
    <glyph glyph-name="A" unicode="A" horiz-adv-x="1563" 
d="M1091 0l-90 317h-471l-93 -317h-364l484 1443h449l485 -1443h-400zM758 1118l-158 -537h332l-155 537h-19z" />
    <glyph glyph-name="B" unicode="B" horiz-adv-x="1459" 
d="M863 0h-693v1443h673q215 0 336.5 -96t121.5 -264q0 -116 -77 -203.5t-192 -103.5v-19q142 -8 238.5 -105.5t96.5 -235.5q0 -190 -136.5 -303t-367.5 -113zM537 1184v-329h194q100 0 156 43.5t56 120.5t-52.5 121t-145.5 44h-208zM537 259h222q114 0 174.5 48.5
t60.5 140.5q0 89 -61.5 136.5t-175.5 47.5h-220v-373z" />
    <glyph glyph-name="C" unicode="C" horiz-adv-x="1545" 
d="M800 -39q-324 0 -511 204t-187 557t186.5 556.5t511.5 203.5q179 0 325.5 -73.5t232.5 -204t91 -291.5h-353q-14 118 -96 190.5t-200 72.5q-151 0 -237.5 -121t-86.5 -332q0 -212 87 -334t238 -122q119 0 200 70.5t97 186.5h352q-9 -248 -191 -405.5t-459 -157.5z" />
    <glyph glyph-name="D" unicode="D" horiz-adv-x="1553" 
d="M170 1444h606q322 0 498.5 -185t176.5 -523q0 -355 -174.5 -545.5t-500.5 -190.5h-606v1444zM537 1149v-854h173q179 0 273 110t94 324q0 201 -96.5 310.5t-270.5 109.5h-173z" />
    <glyph glyph-name="E" unicode="E" horiz-adv-x="1302" 
d="M1159 295v-295h-989v1443h989v-295h-622v-288h585v-270h-585v-295h622z" />
    <glyph glyph-name="F" unicode="F" horiz-adv-x="1251" 
d="M537 0h-367v1443h982v-295h-615v-329h558v-281h-558v-538z" />
    <glyph glyph-name="G" unicode="G" horiz-adv-x="1572" 
d="M1468 601q0 -298 -174.5 -469t-480.5 -171q-333 0 -522 203t-189 559q0 352 188 555.5t513 203.5q264 0 443.5 -140.5t206.5 -369.5h-362q-27 95 -103.5 149.5t-184.5 54.5q-154 0 -240.5 -119t-86.5 -330q0 -213 93.5 -336.5t251.5 -123.5q125 0 205 67t87 177l1 24
h-264v252h618v-186z" />
    <glyph glyph-name="H" unicode="H" horiz-adv-x="1648" 
d="M1478 0h-366v582h-575v-582h-367v1443h367v-566h575v566h366v-1443z" />
    <glyph glyph-name="I" unicode="I" horiz-adv-x="707" 
d="M537 0h-367v1443h367v-1443z" />
    <glyph glyph-name="J" unicode="J" horiz-adv-x="1299" 
d="M70 458h352q1 -85 48 -135.5t126 -50.5q81 0 123.5 50t42.5 146v975h367v-978q0 -241 -139.5 -372.5t-387.5 -131.5q-244 0 -388 133.5t-144 363.5z" />
    <glyph glyph-name="K" unicode="K" horiz-adv-x="1507" 
d="M537 0h-367v1443h367v-620h19l480 620h394l-499 -637l528 -806h-431l-364 569l-127 -161v-408z" />
    <glyph glyph-name="L" unicode="L" horiz-adv-x="1247" 
d="M1150 303v-303h-980v1443h367v-1140h613z" />
    <glyph glyph-name="M" unicode="M" horiz-adv-x="1924" 
d="M1754 0h-339v911h-18l-321 -800h-227l-322 800h-18v-911h-339v1443h433l350 -882h19l349 882h433v-1443z" />
    <glyph glyph-name="N" unicode="N" horiz-adv-x="1601" 
d="M518 0h-348v1443h293l601 -812h19v812h348v-1443h-291l-603 820h-19v-820z" />
    <glyph glyph-name="O" unicode="O" horiz-adv-x="1626" 
d="M814 1482q326 0 518 -204.5t192 -555.5q0 -352 -192 -556.5t-518 -204.5q-328 0 -520 204.5t-192 556.5q0 351 193 555.5t519 204.5zM814 1178q-153 0 -245.5 -124t-92.5 -332q0 -209 92 -333t246 -124q153 0 245 124t92 333q0 208 -92.5 332t-244.5 124z" />
    <glyph glyph-name="P" unicode="P" horiz-adv-x="1421" 
d="M170 1443h632q233 0 376.5 -140t143.5 -372q0 -229 -150 -368.5t-392 -139.5h-243v-423h-367v1443zM537 1161v-461h166q118 0 183 59t65 171q0 113 -64 172t-182 59h-168z" />
    <glyph glyph-name="Q" unicode="Q" horiz-adv-x="1626" 
d="M814 -39q-328 0 -520 204t-192 557q0 351 193 555.5t519 204.5t518 -204.5t192 -555.5q0 -185 -54.5 -331.5t-156.5 -243.5l177 -279h-341l-85 130q-117 -37 -250 -37zM814 266q40 0 78 9l-150 232h312l33 -44q64 98 64 259q0 208 -92.5 331.5t-244.5 123.5
q-153 0 -245.5 -123.5t-92.5 -331.5q0 -209 92.5 -332.5t245.5 -123.5z" />
    <glyph glyph-name="R" unicode="R" horiz-adv-x="1466" 
d="M537 1166v-402h217q101 0 158 53t57 147q0 92 -59 147t-157 55h-216zM537 505v-505h-367v1443h635q253 0 396 -126.5t143 -349.5q0 -136 -65 -246.5t-181 -161.5l288 -559h-412l-247 505h-190z" />
    <glyph glyph-name="S" unicode="S" horiz-adv-x="1423" 
d="M107 411h350q7 -79 79.5 -125.5t186.5 -46.5q103 0 167 45t64 116q0 60 -52 95.5t-176 60.5l-190 38q-198 37 -299 144t-101 277q0 212 156.5 339.5t417.5 127.5q253 0 413 -125t165 -325h-339q-6 76 -71.5 124.5t-162.5 48.5t-155.5 -42.5t-58.5 -114.5q0 -59 51 -96
t165 -59l186 -36q214 -41 313.5 -141t99.5 -272q0 -226 -162 -354.5t-446 -128.5q-274 0 -435.5 121t-165.5 329z" />
    <glyph glyph-name="T" unicode="T" horiz-adv-x="1381" 
d="M873 0h-366v1148h-416v295h1199v-295h-417v-1148z" />
    <glyph glyph-name="U" unicode="U" horiz-adv-x="1585" 
d="M538 1443v-906q0 -126 66.5 -196.5t188.5 -70.5t188 70t66 197v906h367v-945q0 -243 -170 -390t-451 -147t-451.5 147t-170.5 390v945h367z" />
    <glyph glyph-name="V" unicode="V" horiz-adv-x="1528" 
d="M1002 0h-464l-465 1443h421l277 -1062h19l269 1062h396z" />
    <glyph glyph-name="W" unicode="W" horiz-adv-x="2112" 
d="M1046 884l-237 -884h-346l-377 1443h381l192 -957h18l231 957h294l239 -957h18l189 957h378l-377 -1443h-344l-241 884h-18z" />
    <glyph glyph-name="X" unicode="X" horiz-adv-x="1549" 
d="M87 0l443 728l-442 715h428l259 -478h19l261 478h408l-461 -719l457 -724h-413l-274 457h-19l-276 -457h-390z" />
    <glyph glyph-name="Y" unicode="Y" horiz-adv-x="1507" 
d="M937 0h-366v496l-498 947h391l281 -589h19l279 589h391l-497 -947v-496z" />
    <glyph glyph-name="Z" unicode="Z" horiz-adv-x="1399" 
d="M130 0v233l677 896v19h-666v295h1106v-233l-677 -896v-19h698v-295h-1138z" />
    <glyph glyph-name="bracketleft" unicode="[" horiz-adv-x="929" 
d="M243 1530h617v-256h-277v-1329h277v-257h-617v1842z" />
    <glyph glyph-name="backslash" unicode="\" horiz-adv-x="852" 
d="M510 -312l-510 1842h341l511 -1842h-342z" />
    <glyph glyph-name="bracketright" unicode="]" horiz-adv-x="929" 
d="M686 1530v-1842h-617v257h277v1329h-277v256h617z" />
    <glyph glyph-name="asciicircum" unicode="^" horiz-adv-x="1109" 
d="M545 1144l-163 -375h-306l331 635h295l332 -635h-307l-163 375h-19z" />
    <glyph glyph-name="underscore" unicode="_" horiz-adv-x="960" 
d="M958 -373h-956v266h956v-266z" />
    <glyph glyph-name="grave" unicode="`" horiz-adv-x="1101" 
d="M849 1288h-309l-292 359h356z" />
    <glyph glyph-name="a" unicode="a" horiz-adv-x="1248" 
d="M570 230q84 0 141.5 49t57.5 121v73l-187 -12q-78 -6 -119 -36t-41 -80q0 -53 40.5 -84t107.5 -31zM441 -17q-161 0 -260.5 92.5t-99.5 244.5t114.5 238.5t330.5 99.5l243 14v87q0 57 -40.5 88.5t-113.5 31.5q-141 0 -176 -90h-318q12 162 150 256t364 94q230 0 356 -100
t126 -280v-759h-344v138h-19q-37 -71 -122 -113t-191 -42z" />
    <glyph glyph-name="b" unicode="b" horiz-adv-x="1374" 
d="M847 -17q-119 0 -207.5 50.5t-128.5 140.5h-19v-174h-344v1530h353v-596h19q41 93 126.5 144.5t200.5 51.5q211 0 327.5 -150.5t116.5 -422.5q0 -271 -117.5 -422.5t-326.5 -151.5zM715 852q-99 0 -157 -79.5t-59 -216.5q1 -137 58.5 -216t157.5 -79q99 0 156 79.5
t57 216.5q0 136 -57.5 215.5t-155.5 79.5z" />
    <glyph glyph-name="c" unicode="c" horiz-adv-x="1233" 
d="M1158 701h-325q-11 79 -59 122.5t-128 43.5q-208 0 -208 -309q0 -312 208 -312q163 0 187 158h325q-16 -201 -151.5 -315.5t-360.5 -114.5q-275 0 -419 149.5t-144 434.5q0 284 144 432.5t419 148.5q228 0 361.5 -116t150.5 -322z" />
    <glyph glyph-name="d" unicode="d" horiz-adv-x="1374" 
d="M530 -17q-209 0 -328 153.5t-119 422.5q0 266 119.5 418.5t327.5 152.5q112 0 197.5 -52t126.5 -144h19v596h354v-1530h-345v174h-19q-41 -90 -129 -140.5t-204 -50.5zM660 852q-100 0 -157 -78.5t-57 -216.5q0 -139 56.5 -217.5t157.5 -78.5t158 78.5t57 216.5
t-57.5 217t-157.5 79z" />
    <glyph glyph-name="e" unicode="e" horiz-adv-x="1262" 
d="M639 888q-87 0 -143 -56.5t-63 -150.5h404q-4 97 -56.5 152t-141.5 55zM850 328h323q-29 -163 -172 -258.5t-359 -95.5q-266 0 -412.5 150.5t-146.5 424.5q0 275 147.5 432.5t406.5 157.5q257 0 400 -148.5t143 -414.5v-98h-749v-18q2 -109 61 -172t160 -63
q77 0 128.5 27t69.5 76z" />
    <glyph glyph-name="f" unicode="f" horiz-adv-x="885" 
d="M229 0v835h-178v263h178v108q0 170 96.5 252.5t315.5 82.5q97 0 168 -11v-233q-34 6 -90 6q-79 0 -112.5 -30t-33.5 -95v-80h227v-263h-218v-835h-353z" />
    <glyph glyph-name="g" unicode="g" horiz-adv-x="1360" 
d="M655 276q102 0 159 76.5t57 210.5q0 135 -57.5 212t-158.5 77q-100 0 -156.5 -77t-56.5 -211t56 -211t157 -77zM645 -419q-232 0 -377 91.5t-156 241.5h344q10 -45 63 -71.5t136 -26.5q102 0 158 45.5t56 128.5v201h-19q-87 -175 -328 -175q-204 0 -323.5 147.5
t-119.5 399.5q0 263 120.5 415t330.5 152q111 0 199 -52.5t130 -143.5h19v179h345v-1100q0 -199 -156 -315.5t-422 -116.5z" />
    <glyph glyph-name="h" unicode="h" horiz-adv-x="1355" 
d="M148 0v1530h346v-602h19q37 96 125 151t208 55q182 0 281.5 -108.5t99.5 -310.5v-715h-353v635q0 103 -46 157t-134 54q-90 0 -141.5 -59t-51.5 -156v-631h-353z" />
    <glyph glyph-name="i" unicode="i" horiz-adv-x="631" 
d="M138 0v1113h354v-1113h-354zM315 1242q-92 0 -145.5 43t-53.5 114q0 72 53.5 115t145.5 43q93 0 146.5 -43t53.5 -115q0 -71 -53.5 -114t-146.5 -43z" />
    <glyph glyph-name="j" unicode="j" horiz-adv-x="631" 
d="M492 1113v-1140q0 -170 -109 -260.5t-313 -90.5q-55 0 -103 5v253q18 -2 42 -2q69 0 99 25.5t30 82.5v1127h354zM315 1242q-92 0 -145.5 43t-53.5 114q0 72 53.5 115t145.5 43q93 0 146.5 -43t53.5 -115q0 -71 -53.5 -114t-146.5 -43z" />
    <glyph glyph-name="k" unicode="k" horiz-adv-x="1295" 
d="M520 697l316 416h396l-397 -478l424 -635h-412l-278 426l-68 -77v-349h-353v1530h353v-833h19z" />
    <glyph glyph-name="l" unicode="l" horiz-adv-x="649" 
d="M148 0v1530h353v-1530h-353z" />
    <glyph glyph-name="m" unicode="m" horiz-adv-x="1960" 
d="M138 0v1113h344v-184h19q32 97 115 153.5t192 56.5q119 0 198 -54.5t111 -155.5h19q35 95 125.5 152.5t207.5 57.5q164 0 263.5 -103.5t99.5 -274.5v-761h-353v671q0 179 -161 179q-75 0 -119.5 -50t-44.5 -132v-668h-338v677q0 84 -41 128.5t-118 44.5q-74 0 -120 -52
t-46 -136v-662h-353z" />
    <glyph glyph-name="n" unicode="n" horiz-adv-x="1332" 
d="M138 0v1113h344v-181h19q37 96 122 151.5t204 55.5q184 0 280.5 -109t96.5 -311v-719h-354v640q0 210 -175 210q-85 0 -134.5 -58.5t-49.5 -155.5v-636h-353z" />
    <glyph glyph-name="o" unicode="o" horiz-adv-x="1300" 
d="M650 -26q-267 0 -417 154t-150 429q0 270 152 426t415 156q264 0 415.5 -155.5t151.5 -426.5q0 -275 -149.5 -429t-417.5 -154zM650 244q97 0 150.5 82t53.5 231q0 146 -54 229t-150 83t-150 -83t-54 -229q0 -149 53.5 -231t150.5 -82z" />
    <glyph glyph-name="p" unicode="p" horiz-adv-x="1364" 
d="M833 1130q211 0 329.5 -150.5t118.5 -422.5t-116 -423t-324 -151q-120 0 -206 49.5t-125 138.5h-19v-539h-353v1481h344v-181h19q41 93 129 145.5t203 52.5zM704 261q101 0 157.5 78.5t56.5 217.5q0 138 -57 216.5t-157 78.5t-157.5 -79t-57.5 -217q0 -139 57 -217
t158 -78z" />
    <glyph glyph-name="q" unicode="q" horiz-adv-x="1364" 
d="M534 1130q112 0 199.5 -53.5t129.5 -144.5h19v181h345v-1481h-355v539h-19q-41 -89 -126 -138.5t-202 -49.5q-208 0 -325 153.5t-117 422.5q0 266 120.5 418.5t330.5 152.5zM659 261q101 0 158.5 78.5t57.5 216.5q0 137 -58 216.5t-158 79.5t-156.5 -79t-56.5 -216
q0 -139 56.5 -217.5t156.5 -78.5z" />
    <glyph glyph-name="r" unicode="r" horiz-adv-x="950" 
d="M138 0v1113h344v-183h19q21 86 96.5 143t177.5 57q88 0 128 -17v-301q-49 20 -152 20q-119 0 -189.5 -64t-70.5 -179v-589h-353z" />
    <glyph glyph-name="s" unicode="s" horiz-adv-x="1206" 
d="M113 778q0 166 132 263.5t357 97.5q231 0 355.5 -87.5t134.5 -255.5h-322q-8 49 -51 76.5t-114 27.5q-69 0 -112.5 -27.5t-43.5 -72.5q0 -35 30.5 -57.5t97.5 -36.5l230 -47q165 -35 239.5 -107.5t74.5 -198.5q0 -173 -140 -276t-374 -103q-239 0 -372.5 88.5
t-148.5 256.5h341q28 -106 185 -106q73 0 116.5 27t43.5 72q0 35 -27.5 56t-94.5 35l-207 44q-330 70 -330 331z" />
    <glyph glyph-name="t" unicode="t" horiz-adv-x="898" 
d="M226 1368h353v-270h224v-263h-224v-451q0 -125 135 -125q46 0 89 5v-252q-65 -14 -169 -14q-219 0 -313.5 71.5t-94.5 235.5v530h-171v263h171v270z" />
    <glyph glyph-name="u" unicode="u" horiz-adv-x="1340" 
d="M1202 1113v-1113h-344v180h-19q-82 -206 -316 -206q-179 0 -287 110.5t-108 301.5v727h353v-640q0 -101 47.5 -154.5t133.5 -53.5q89 0 137.5 56.5t48.5 155.5v636h354z" />
    <glyph glyph-name="v" unicode="v" horiz-adv-x="1238" 
d="M1196 1113l-371 -1113h-408l-375 1113h381l193 -796h19l189 796h372z" />
    <glyph glyph-name="w" unicode="w" horiz-adv-x="1814" 
d="M1756 1113l-288 -1113h-381l-174 733h-19l-172 -733h-375l-290 1113h358l139 -763h19l168 763h337l170 -763h19l139 763h350z" />
    <glyph glyph-name="x" unicode="x" horiz-adv-x="1250" 
d="M626 341h-19l-178 -341h-369l333 547l-335 566h403l163 -347h19l165 347h383l-337 -551l338 -562h-387z" />
    <glyph glyph-name="y" unicode="y" horiz-adv-x="1282" 
d="M298 -405q-124 0 -129 1v269q10 -2 62 -2q176 0 194 97l5 31l-380 1122h391l199 -816h19l199 816h374l-358 -1111q-71 -222 -203.5 -314.5t-372.5 -92.5z" />
    <glyph glyph-name="z" unicode="z" horiz-adv-x="1190" 
d="M112 0v189l524 639v19h-512v266h936v-217l-477 -611v-19h495v-266h-966z" />
    <glyph glyph-name="braceleft" unicode="{" horiz-adv-x="929" 
d="M368 595q137 -15 211 -81.5t74 -175.5v-222q0 -98 36 -138t125 -40h46v-250h-84q-246 0 -354 93t-108 303v168q0 105 -57 151t-188 48v324q131 2 188 48t57 151v168q0 207 107.5 297.5t354.5 90.5h84v-250h-46q-89 0 -125 -40t-36 -138v-214q0 -109 -74 -175.5
t-211 -81.5v-36z" />
    <glyph glyph-name="bar" unicode="|" horiz-adv-x="852" 
d="M596 -312h-340v1842h340v-1842z" />
    <glyph glyph-name="braceright" unicode="}" horiz-adv-x="929" 
d="M561 595v36q-137 15 -211 81.5t-74 175.5v214q0 98 -36 138t-125 40h-46v250h84q247 0 354.5 -90.5t107.5 -297.5v-168q0 -105 57 -151.5t188 -47.5v-324q-132 -2 -188.5 -48t-56.5 -151v-168q0 -210 -108 -303t-354 -93h-84v250h46q89 0 125 40t36 138v222
q0 109 74 175.5t211 81.5z" />
    <glyph glyph-name="asciitilde" unicode="~" horiz-adv-x="1236" 
d="M570 617q-41 41 -68 57t-57 16q-106 0 -107 -178h-264q0 233 78.5 349.5t250.5 116.5q70 0 130 -29.5t137 -103.5q72 -71 122 -71q104 0 107 178h264q0 -242 -77 -354t-249 -112q-72 0 -132.5 29.5t-134.5 101.5z" />
    <glyph glyph-name="nonbreakingspace" unicode="&#xa0;" horiz-adv-x="502" 
 />
    <glyph glyph-name="exclamdown" unicode="&#xa1;" horiz-adv-x="778" 
d="M197 -314l32 970h320l32 -970h-384zM389 800q-97 0 -150.5 48t-53.5 135q0 86 53.5 133.5t150.5 47.5t151 -48t54 -133q0 -87 -54 -135t-151 -48z" />
    <glyph glyph-name="cent" unicode="&#xa2;" horiz-adv-x="1461" 
d="M1298 536q-14 -168 -127.5 -278t-292.5 -141v-189h-279v195q-203 42 -323 191.5t-120 376.5q0 223 120.5 372.5t322.5 191.5v196h279v-191q177 -32 291.5 -146t128.5 -281h-324q-17 74 -76.5 120t-139.5 46q-108 0 -177.5 -82.5t-69.5 -225.5q0 -146 69.5 -229t176.5 -83
q86 0 143.5 42t73.5 115h324z" />
    <glyph glyph-name="sterling" unicode="&#xa3;" horiz-adv-x="1461" 
d="M628 298h676v-298h-1156v274q135 15 217 101t82 213q0 12 -2 36h-291v240h218q-57 141 -57 234q0 183 151.5 283.5t427.5 100.5q92 0 192.5 -14.5t153.5 -35.5v-276q-54 22 -135.5 36t-156.5 14q-129 0 -198.5 -46.5t-69.5 -130.5q0 -65 37 -165h385v-240h-315v-11
q0 -95 -44 -178t-115 -117v-20z" />
    <glyph glyph-name="currency" unicode="&#xa4;" horiz-adv-x="1461" 
d="M512 645q0 -89 65 -154.5t154 -65.5t154 65.5t65 154.5t-65 155t-154 66t-154 -66t-65 -155zM1295 1012l-139 -139q57 -108 57 -228t-57 -228l139 -139l-197 -198l-140 140q-108 -57 -227 -57q-120 0 -228 57l-140 -140l-197 198l140 140q-57 108 -57 227t57 227
l-140 140l197 198l140 -140q108 57 228 57q119 0 227 -57l140 140z" />
    <glyph glyph-name="yen" unicode="&#xa5;" horiz-adv-x="1461" 
d="M1182 182h-268v-182h-367v182h-268v182h268v120h-268v182h181l-410 777h391l281 -589h19l279 589h391l-410 -777h181v-182h-268v-120h268v-182z" />
    <glyph glyph-name="brokenbar" unicode="&#xa6;" horiz-adv-x="852" 
d="M596 796h-340v734h340v-734zM596 -312h-340v735h340v-735z" />
    <glyph glyph-name="section" unicode="&#xa7;" horiz-adv-x="1032" 
d="M470 475l123 -46q42 12 70 46t28 72q0 41 -33.5 74.5t-93.5 52.5l-122 47q-42 -13 -70.5 -47t-28.5 -71q0 -40 34 -74t93 -54zM512 -297q-195 0 -319.5 96t-130.5 251h293q6 -49 50.5 -80.5t107.5 -31.5q65 0 105 31.5t40 82.5q0 37 -29 62.5t-94 47.5l-194 68
q-155 55 -223.5 127t-68.5 181q0 93 56.5 165t154.5 104v19q-106 53 -152 117t-46 158q0 157 124.5 251.5t332.5 94.5q194 0 317 -94.5t131 -250.5h-293q-6 49 -49.5 79.5t-105.5 30.5q-64 0 -103.5 -31.5t-39.5 -82.5q0 -37 27.5 -61.5t94.5 -48.5l186 -69
q159 -58 229.5 -129.5t70.5 -175.5q0 -95 -60 -169.5t-160 -104.5v-19q110 -50 158.5 -113.5t48.5 -157.5q0 -157 -125.5 -252t-333.5 -95z" />
    <glyph glyph-name="dieresis" unicode="&#xa8;" horiz-adv-x="1220" 
d="M359 1268q-76 0 -124.5 46t-48.5 118t48.5 118t124.5 46t124.5 -46t48.5 -118t-48.5 -118t-124.5 -46zM861 1268q-76 0 -124.5 46t-48.5 118t48.5 118t124.5 46t125 -46t49 -118t-49 -118t-125 -46z" />
    <glyph glyph-name="copyright" unicode="&#xa9;" horiz-adv-x="1742" 
d="M871 -124q-160 0 -305.5 62t-251 167.5t-167.5 251t-62 306.5q0 160 62 305.5t167.5 251t251 167.5t305.5 62t305.5 -62t251 -167.5t167.5 -251t62 -305.5q0 -161 -62 -306.5t-167.5 -251t-251 -167.5t-305.5 -62zM871 52q125 0 238 48t194.5 130t129.5 195t48 238
t-48 238t-129.5 194.5t-194.5 129.5t-238 48t-238 -48t-194.5 -129.5t-129.5 -194.5t-48 -238q0 -167 81.5 -307.5t222 -222t306.5 -81.5zM1232 756h-214q-8 53 -43 83.5t-87 30.5q-68 0 -106.5 -54.5t-38.5 -151.5q0 -100 38 -154t107 -54q54 0 88 28t42 79h214
q-12 -133 -104.5 -209.5t-241.5 -76.5q-175 0 -275 103.5t-100 283.5q0 178 100.5 281.5t272.5 103.5q147 0 241.5 -79.5t106.5 -213.5z" />
    <glyph glyph-name="ordfeminine" unicode="&#xaa;" horiz-adv-x="1078" 
d="M518 709q61 0 99.5 36.5t38.5 93.5v61l-135 -10q-118 -9 -118 -91q0 -42 30.5 -66t84.5 -24zM393 490q-138 0 -220 78t-82 211q0 128 95.5 200.5t281.5 83.5l187 10v73q1 41 -30 64.5t-85 23.5q-104 0 -118 -71h-298q9 142 122.5 222.5t305.5 80.5q194 0 306.5 -87
t112.5 -238v-635h-310v110h-19q-28 -58 -95 -92t-154 -34z" />
    <glyph glyph-name="guillemotleft" unicode="&#xab;" horiz-adv-x="1476" 
d="M456 571v-8l345 -410h-313l-342 409v8l349 409h306zM985 571v-8l345 -410h-314l-341 409v8l348 409h307z" />
    <glyph glyph-name="logicalnot" unicode="&#xac;" horiz-adv-x="1461" 
d="M1279 737v-703h-312v402h-785v301h1097z" />
    <glyph glyph-name="registered" unicode="&#xae;" horiz-adv-x="1260" 
d="M630 434q-145 0 -268 71.5t-194.5 194.5t-71.5 268t71.5 268t194.5 194.5t268 71.5t268 -71.5t194.5 -194.5t71.5 -268t-71.5 -268t-194.5 -194.5t-268 -71.5zM630 582q160 0 273 113t113 273t-113 273t-273 113t-273 -113t-113 -273t113 -273t273 -113zM555 733h-139
v482h260q83 0 133.5 -43.5t50.5 -113.5q0 -53 -26.5 -92.5t-70.5 -54.5l121 -178h-164l-102 158h-63v-158zM555 1106v-114h86q71 0 71 56q0 58 -69 58h-88z" />
    <glyph glyph-name="macron" unicode="&#xaf;" horiz-adv-x="1048" 
d="M908 1525v-198h-768v198h768z" />
    <glyph glyph-name="degree" unicode="&#xb0;" horiz-adv-x="935" 
d="M468 714q-162 0 -270.5 107.5t-108.5 266.5q0 158 108.5 265.5t270.5 107.5q161 0 270 -107.5t109 -265.5t-109 -266t-270 -108zM468 910q77 0 125.5 50t48.5 128t-48 127.5t-126 49.5q-77 0 -126 -50t-49 -127t49 -127.5t126 -50.5z" />
    <glyph glyph-name="plusminus" unicode="&#xb1;" horiz-adv-x="1461" 
d="M1222 55h-986v255h986v-255zM882 645v-212h-303v212h-343v258h343v213h303v-213h343v-258h-343z" />
    <glyph glyph-name="two.sups" unicode="&#xb2;" horiz-adv-x="960" 
d="M72 1526q0 152 109.5 242.5t294.5 90.5q178 0 281.5 -78.5t103.5 -213.5q0 -96 -61 -178.5t-197 -169.5l-78 -63v-19h352v-243h-780v219l264 212q114 88 151 129.5t37 81.5q0 37 -24.5 60t-64.5 23q-43 0 -69 -25.5t-26 -66.5v-7h-293v6z" />
    <glyph glyph-name="three.sups" unicode="&#xb3;" horiz-adv-x="1001" 
d="M377 1270v198h115q45 0 69.5 20t24.5 56q0 33 -27.5 54t-70.5 21q-49 0 -78.5 -24.5t-31.5 -66.5h-291q-2 149 108.5 238.5t297.5 89.5q178 0 284 -72t106 -191q0 -80 -50 -136.5t-132 -68.5v-19q99 -10 157 -67.5t58 -146.5q0 -130 -116 -209t-307 -79
q-190 0 -301.5 91.5t-109.5 245.5h293q2 -42 33 -67.5t82 -25.5q48 0 77.5 22.5t29.5 59.5t-27 57t-77 20h-116z" />
    <glyph glyph-name="acute" unicode="&#xb4;" horiz-adv-x="1101" 
d="M555 1288h-309l245 359h356z" />
    <glyph glyph-name="mugreek" unicode="&#x3bc;" horiz-adv-x="1421" 
d="M138 -368v1481h353v-641q0 -100 44.5 -153.5t133.5 -53.5q78 0 128.5 58.5t50.5 151.5v638h354v-741q0 -68 18.5 -94.5t64.5 -26.5q27 0 57 9v-250q-77 -21 -155 -21q-120 0 -188.5 46t-97.5 149l-4 15h-20q-10 -107 -67 -166t-157 -59t-143 58h-19v-400h-353z" />
    <glyph glyph-name="mugreek" unicode="&#xb5;" horiz-adv-x="1421" 
d="M138 -368v1481h353v-641q0 -100 44.5 -153.5t133.5 -53.5q78 0 128.5 58.5t50.5 151.5v638h354v-741q0 -68 18.5 -94.5t64.5 -26.5q27 0 57 9v-250q-77 -21 -155 -21q-120 0 -188.5 46t-97.5 149l-4 15h-20q-10 -107 -67 -166t-157 -59t-143 58h-19v-400h-353z" />
    <glyph glyph-name="paragraph" unicode="&#xb6;" horiz-adv-x="1717" 
d="M1036 -273h-333v665h-20q-156 0 -283 70t-197.5 189.5t-70.5 263.5q0 150 68.5 270t195 189t288.5 69h352v-1716zM1216 -273v1716h332v-1716h-332z" />
    <glyph glyph-name="periodcentered" unicode="&#xb7;" horiz-adv-x="772" 
d="M386 537q-95 0 -150.5 53.5t-55.5 140.5t55.5 140.5t150.5 53.5q96 0 151 -53.5t55 -140.5t-55.5 -140.5t-150.5 -53.5z" />
    <glyph glyph-name="cedilla" unicode="&#xb8;" horiz-adv-x="1101" 
d="M410 -238v128l61 139h182v-29l-42 -99q91 -7 138.5 -53.5t47.5 -128.5q0 -101 -72.5 -156t-206.5 -55q-92 0 -148 18v144q40 -14 113 -14q108 0 108 53q0 28 -28.5 40.5t-91.5 12.5h-61z" />
    <glyph glyph-name="one.sups" unicode="&#xb9;" horiz-adv-x="812" 
d="M322 894v655h-19q-5 -3 -110 -68.5t-106 -66.5v268q103 72 230 149h330v-937h-325z" />
    <glyph glyph-name="ordmasculine" unicode="&#xba;" horiz-adv-x="1151" 
d="M574 490q-225 0 -350.5 128t-125.5 358q0 225 127.5 355t348.5 130q223 0 350 -129.5t127 -355.5q0 -231 -125.5 -358.5t-351.5 -127.5zM574 730q73 0 112.5 64t39.5 182q0 116 -40 181t-112 65q-71 0 -111.5 -65.5t-40.5 -180.5q0 -118 39.5 -182t112.5 -64z" />
    <glyph glyph-name="guillemotright" unicode="&#xbb;" horiz-adv-x="1476" 
d="M491 571l-345 408h307l348 -409v-8l-341 -409h-314l345 410v8zM1020 571l-345 408h306l349 -409v-8l-342 -409h-313l345 410v8z" />
    <glyph glyph-name="onequarter" unicode="&#xbc;" horiz-adv-x="2399" 
d="M322 506v655h-19q-5 -3 -110 -68.5t-106 -66.5v268q103 72 230 149h330v-937h-325zM933 0h-330l424 746l308 697h329l-441 -750zM1910 0v120h-496v242q48 105 123 229t226 346h440v-582h104v-222h-118v-133h-279zM1683 349v-2h227v361h-18q-168 -268 -209 -359z" />
    <glyph glyph-name="onehalf" unicode="&#xbd;" horiz-adv-x="2398" 
d="M322 506v655h-19q-5 -3 -110 -68.5t-106 -66.5v268q103 72 230 149h330v-937h-325zM933 0h-330l424 746l308 697h329l-441 -750zM1510 632q0 152 109.5 242.5t294.5 90.5q178 0 281.5 -78.5t103.5 -213.5q0 -96 -61 -178.5t-197 -169.5l-78 -63v-19h352v-243h-780v219
l264 212q114 88 151 129.5t37 81.5q0 37 -24.5 60t-64.5 23q-43 0 -69 -25.5t-26 -66.5v-7h-293v6z" />
    <glyph glyph-name="threequarters" unicode="&#xbe;" horiz-adv-x="2543" 
d="M377 882v198h115q45 0 69.5 20t24.5 56q0 33 -27.5 54t-70.5 21q-49 0 -78.5 -24.5t-31.5 -66.5h-291q-2 149 108.5 238.5t297.5 89.5q178 0 284 -72t106 -191q0 -80 -50 -136.5t-132 -68.5v-19q99 -10 157 -67.5t58 -146.5q0 -130 -116 -209t-307 -79
q-190 0 -301.5 91.5t-109.5 245.5h293q2 -42 33 -67.5t82 -25.5q48 0 77.5 22.5t29.5 59.5t-27 57t-77 20h-116zM1078 0h-330l424 746l308 697h329l-441 -750zM2054 0v120h-496v242q48 105 123 229t226 346h440v-582h104v-222h-118v-133h-279zM1827 349v-2h227v361h-18
q-168 -268 -209 -359z" />
    <glyph glyph-name="questiondown" unicode="&#xbf;" horiz-adv-x="1189" 
d="M1114 107q-2 -199 -139 -316.5t-374 -117.5q-227 0 -364.5 110t-137.5 290q0 110 52.5 190.5t163.5 144.5q103 60 138.5 104t35.5 114v47h312l2 -39q15 -127 -24 -204t-145 -138q-102 -60 -136.5 -102t-34.5 -108q0 -61 45 -98.5t117 -37.5q71 0 116 44t47 117h326z
M636 800q-96 0 -150 48t-54 134t54 134t150 48q97 0 151 -48t54 -134t-54 -134t-151 -48z" />
    <glyph glyph-name="Agrave" unicode="&#xc0;" horiz-adv-x="1563" 
d="M1091 0l-90 317h-471l-93 -317h-364l484 1443h449l485 -1443h-400zM758 1118l-158 -537h332l-155 537h-19zM645 1596l-306 326h362l258 -326h-314z" />
    <glyph glyph-name="Aacute" unicode="&#xc1;" horiz-adv-x="1563" 
d="M1091 0l-90 317h-471l-93 -317h-364l484 1443h449l485 -1443h-400zM758 1118l-158 -537h332l-155 537h-19zM939 1596h-316l258 326h362z" />
    <glyph glyph-name="Acircumflex" unicode="&#xc2;" horiz-adv-x="1563" 
d="M1091 0l-90 317h-471l-93 -317h-364l484 1443h449l485 -1443h-400zM758 1118l-158 -537h332l-155 537h-19zM617 1946h330l275 -350h-298l-132 190h-20l-132 -190h-298z" />
    <glyph glyph-name="Atilde" unicode="&#xc3;" horiz-adv-x="1563" 
d="M1091 0l-90 317h-471l-93 -317h-364l484 1443h449l485 -1443h-400zM758 1118l-158 -537h332l-155 537h-19zM929 1568q-49 0 -93.5 22t-70 48t-55.5 48t-55 22q-38 0 -60 -36t-24 -100h-210q0 149 76.5 241t200.5 92q40 0 76.5 -14.5t61.5 -35t47.5 -40.5t45 -34.5
t43.5 -14.5q38 0 60 34t23 97h210q0 -147 -76 -238t-200 -91z" />
    <glyph glyph-name="Adieresis" unicode="&#xc4;" horiz-adv-x="1563" 
d="M1091 0l-90 317h-471l-93 -317h-364l484 1443h449l485 -1443h-400zM758 1118l-158 -537h332l-155 537h-19zM531 1581q-76 0 -124.5 46t-48.5 118t48.5 118t124.5 46t124.5 -46t48.5 -118t-48.5 -118t-124.5 -46zM1033 1581q-76 0 -124.5 46t-48.5 118t48.5 118t124.5 46
t125 -46t49 -118t-49 -118t-125 -46z" />
    <glyph glyph-name="Aring" unicode="&#xc5;" horiz-adv-x="1563" 
d="M1091 0l-90 317h-471l-93 -317h-364l484 1443h449l485 -1443h-400zM758 1118l-158 -537h332l-155 537h-19zM783 1543q-91 0 -150 57.5t-59 145.5q0 87 59 143t150 56q90 0 148.5 -56t58.5 -143q0 -88 -58.5 -145.5t-148.5 -57.5zM782 1655q39 0 64.5 25.5t25.5 63.5
t-26 63.5t-64 25.5t-64 -25.5t-26 -63.5t26 -63.5t64 -25.5z" />
    <glyph glyph-name="AE" unicode="&#xc6;" horiz-adv-x="2108" 
d="M872 1167l-217 -575h337v575h-120zM992 0v327h-432l-125 -327h-362l566 1443h1326v-295h-646v-290h609v-270h-609v-293h646v-295h-973z" />
    <glyph glyph-name="Ccedilla" unicode="&#xc7;" horiz-adv-x="1545" 
d="M1098 524h352q-8 -226 -162.5 -379t-396.5 -179l-27 -64q91 -7 138.5 -53.5t47.5 -128.5q0 -101 -72.5 -156t-206.5 -55q-92 0 -148 18v144q40 -14 113 -14q108 0 108 53q0 28 -28.5 40.5t-91.5 12.5h-61v128l33 76q-278 32 -436 232t-158 523q0 353 186.5 556.5
t511.5 203.5q179 0 325.5 -73.5t232.5 -204t91 -291.5h-353q-14 118 -96 190.5t-200 72.5q-151 0 -237.5 -121t-86.5 -332q0 -212 87 -334t238 -122q119 0 200 70.5t97 186.5z" />
    <glyph glyph-name="Egrave" unicode="&#xc8;" horiz-adv-x="1302" 
d="M1159 295v-295h-989v1443h989v-295h-622v-288h585v-270h-585v-295h622zM528 1596l-306 326h362l258 -326h-314z" />
    <glyph glyph-name="Eacute" unicode="&#xc9;" horiz-adv-x="1302" 
d="M1159 295v-295h-989v1443h989v-295h-622v-288h585v-270h-585v-295h622zM822 1596h-316l258 326h362z" />
    <glyph glyph-name="Ecircumflex" unicode="&#xca;" horiz-adv-x="1302" 
d="M1159 295v-295h-989v1443h989v-295h-622v-288h585v-270h-585v-295h622zM500 1946h330l275 -350h-298l-132 190h-20l-132 -190h-298z" />
    <glyph glyph-name="Edieresis" unicode="&#xcb;" horiz-adv-x="1302" 
d="M1159 295v-295h-989v1443h989v-295h-622v-288h585v-270h-585v-295h622zM414 1581q-76 0 -124.5 46t-48.5 118t48.5 118t124.5 46t124.5 -46t48.5 -118t-48.5 -118t-124.5 -46zM916 1581q-76 0 -124.5 46t-48.5 118t48.5 118t124.5 46t125 -46t49 -118t-49 -118t-125 -46z
" />
    <glyph glyph-name="Igrave" unicode="&#xcc;" horiz-adv-x="707" 
d="M537 0h-367v1443h367v-1443zM216 1596l-306 326h362l258 -326h-314z" />
    <glyph glyph-name="Iacute" unicode="&#xcd;" horiz-adv-x="707" 
d="M537 0h-367v1443h367v-1443zM510 1596h-316l258 326h362z" />
    <glyph glyph-name="Icircumflex" unicode="&#xce;" horiz-adv-x="707" 
d="M537 0h-367v1443h367v-1443zM188 1946h330l275 -350h-298l-132 190h-20l-132 -190h-298z" />
    <glyph glyph-name="Idieresis" unicode="&#xcf;" horiz-adv-x="707" 
d="M537 0h-367v1443h367v-1443zM102 1581q-76 0 -124.5 46t-48.5 118t48.5 118t124.5 46t124.5 -46t48.5 -118t-48.5 -118t-124.5 -46zM604 1581q-76 0 -124.5 46t-48.5 118t48.5 118t124.5 46t125 -46t49 -118t-49 -118t-125 -46z" />
    <glyph glyph-name="Eth" unicode="&#xd0;" horiz-adv-x="1553" 
d="M537 295h173q179 0 273 110t94 324q0 201 -96.5 310.5t-270.5 109.5h-173v-297h216v-252h-216v-305zM170 1444h606q322 0 498.5 -185t176.5 -523q0 -355 -174.5 -545.5t-500.5 -190.5h-606v600h-107v252h107v592z" />
    <glyph glyph-name="Ntilde" unicode="&#xd1;" horiz-adv-x="1601" 
d="M518 0h-348v1443h293l601 -812h19v812h348v-1443h-291l-603 820h-19v-820zM941 1568q-49 0 -93.5 22t-70 48t-55.5 48t-55 22q-38 0 -60 -36t-24 -100h-210q0 149 76.5 241t200.5 92q40 0 76.5 -14.5t61.5 -35t47.5 -40.5t45 -34.5t43.5 -14.5q38 0 60 34t23 97h210
q0 -147 -76 -238t-200 -91z" />
    <glyph glyph-name="Ograve" unicode="&#xd2;" horiz-adv-x="1626" 
d="M814 1482q326 0 518 -204.5t192 -555.5q0 -352 -192 -556.5t-518 -204.5q-328 0 -520 204.5t-192 556.5q0 351 193 555.5t519 204.5zM814 1178q-153 0 -245.5 -124t-92.5 -332q0 -209 92 -333t246 -124q153 0 245 124t92 333q0 208 -92.5 332t-244.5 124zM677 1596
l-306 326h362l258 -326h-314z" />
    <glyph glyph-name="Oacute" unicode="&#xd3;" horiz-adv-x="1626" 
d="M814 1482q326 0 518 -204.5t192 -555.5q0 -352 -192 -556.5t-518 -204.5q-328 0 -520 204.5t-192 556.5q0 351 193 555.5t519 204.5zM814 1178q-153 0 -245.5 -124t-92.5 -332q0 -209 92 -333t246 -124q153 0 245 124t92 333q0 208 -92.5 332t-244.5 124zM971 1596h-316
l258 326h362z" />
    <glyph glyph-name="Ocircumflex" unicode="&#xd4;" horiz-adv-x="1626" 
d="M814 1482q326 0 518 -204.5t192 -555.5q0 -352 -192 -556.5t-518 -204.5q-328 0 -520 204.5t-192 556.5q0 351 193 555.5t519 204.5zM814 1178q-153 0 -245.5 -124t-92.5 -332q0 -209 92 -333t246 -124q153 0 245 124t92 333q0 208 -92.5 332t-244.5 124zM649 1946h330
l275 -350h-298l-132 190h-20l-132 -190h-298z" />
    <glyph glyph-name="Otilde" unicode="&#xd5;" horiz-adv-x="1626" 
d="M814 1482q326 0 518 -204.5t192 -555.5q0 -352 -192 -556.5t-518 -204.5q-328 0 -520 204.5t-192 556.5q0 351 193 555.5t519 204.5zM814 1178q-153 0 -245.5 -124t-92.5 -332q0 -209 92 -333t246 -124q153 0 245 124t92 333q0 208 -92.5 332t-244.5 124zM961 1568
q-49 0 -93.5 22t-70 48t-55.5 48t-55 22q-38 0 -60 -36t-24 -100h-210q0 149 76.5 241t200.5 92q40 0 76.5 -14.5t61.5 -35t47.5 -40.5t45 -34.5t43.5 -14.5q38 0 60 34t23 97h210q0 -147 -76 -238t-200 -91z" />
    <glyph glyph-name="Odieresis" unicode="&#xd6;" horiz-adv-x="1626" 
d="M814 1482q326 0 518 -204.5t192 -555.5q0 -352 -192 -556.5t-518 -204.5q-328 0 -520 204.5t-192 556.5q0 351 193 555.5t519 204.5zM814 1178q-153 0 -245.5 -124t-92.5 -332q0 -209 92 -333t246 -124q153 0 245 124t92 333q0 208 -92.5 332t-244.5 124zM563 1581
q-76 0 -124.5 46t-48.5 118t48.5 118t124.5 46t124.5 -46t48.5 -118t-48.5 -118t-124.5 -46zM1065 1581q-76 0 -124.5 46t-48.5 118t48.5 118t124.5 46t125 -46t49 -118t-49 -118t-125 -46z" />
    <glyph glyph-name="multiply" unicode="&#xd7;" horiz-adv-x="1461" 
d="M730 373l-302 -302l-213 212l303 303l-303 303l213 212l302 -302l303 302l213 -212l-303 -303l303 -303l-213 -212z" />
    <glyph glyph-name="Oslash" unicode="&#xd8;" horiz-adv-x="1614" 
d="M1072 1035l-438 -713q77 -57 180 -57q153 0 245 124t92 333q0 190 -79 313zM549 417l434 711q-75 50 -169 50q-153 0 -245.5 -124t-92.5 -332q0 -185 73 -305zM1332 1459l-71 -116q127 -99 195 -257.5t68 -363.5q0 -352 -192 -556.5t-518 -204.5q-201 0 -353 79l-72 -117
l-103 62l73 120q-124 99 -190.5 256.5t-66.5 360.5q0 351 193 555.5t519 204.5q192 0 340 -73l65 106z" />
    <glyph glyph-name="Ugrave" unicode="&#xd9;" horiz-adv-x="1586" 
d="M538 1443v-906q0 -126 66.5 -196.5t188.5 -70.5t188 70t66 197v906h367v-945q0 -243 -170 -390t-451 -147t-451.5 147t-170.5 390v945h367zM656 1596l-306 326h362l258 -326h-314z" />
    <glyph glyph-name="Uacute" unicode="&#xda;" horiz-adv-x="1586" 
d="M538 1443v-906q0 -126 66.5 -196.5t188.5 -70.5t188 70t66 197v906h367v-945q0 -243 -170 -390t-451 -147t-451.5 147t-170.5 390v945h367zM950 1596h-316l258 326h362z" />
    <glyph glyph-name="Ucircumflex" unicode="&#xdb;" horiz-adv-x="1586" 
d="M538 1443v-906q0 -126 66.5 -196.5t188.5 -70.5t188 70t66 197v906h367v-945q0 -243 -170 -390t-451 -147t-451.5 147t-170.5 390v945h367zM628 1946h330l275 -350h-298l-132 190h-20l-132 -190h-298z" />
    <glyph glyph-name="Udieresis" unicode="&#xdc;" horiz-adv-x="1586" 
d="M538 1443v-906q0 -126 66.5 -196.5t188.5 -70.5t188 70t66 197v906h367v-945q0 -243 -170 -390t-451 -147t-451.5 147t-170.5 390v945h367zM542 1581q-76 0 -124.5 46t-48.5 118t48.5 118t124.5 46t124.5 -46t48.5 -118t-48.5 -118t-124.5 -46zM1044 1581
q-76 0 -124.5 46t-48.5 118t48.5 118t124.5 46t125 -46t49 -118t-49 -118t-125 -46z" />
    <glyph glyph-name="Yacute" unicode="&#xdd;" horiz-adv-x="1508" 
d="M937 0h-366v496l-498 947h391l281 -589h19l279 589h391l-497 -947v-496zM912 1596h-316l258 326h362z" />
    <glyph glyph-name="Thorn" unicode="&#xde;" horiz-adv-x="1430" 
d="M170 1443h369v-219h273q227 0 364.5 -129.5t137.5 -350.5q0 -219 -144 -348.5t-381 -129.5h-252v-266h-367v1443zM537 942v-398h174q111 0 171.5 51t60.5 149q0 96 -60 147t-169 51h-177z" />
    <glyph glyph-name="germandbls" unicode="&#xdf;" horiz-adv-x="1469" 
d="M527 0h-353v1070q0 188 146 296.5t397 108.5q238 0 386.5 -105t148.5 -273q0 -118 -58.5 -204.5t-153.5 -112.5v-19q149 -8 242 -107t93 -255q0 -190 -134.5 -302.5t-366.5 -112.5q-123 0 -200 17v276q53 -19 127 -19q102 0 157 44t55 122t-64 122.5t-176 44.5h-77v274
h48q75 0 120.5 44.5t45.5 119.5q0 76 -50.5 121.5t-136.5 45.5q-96 0 -146 -52t-50 -153v-991z" />
    <glyph glyph-name="agrave" unicode="&#xe0;" horiz-adv-x="1248" 
d="M570 230q84 0 141.5 49t57.5 121v73l-187 -12q-78 -6 -119 -36t-41 -80q0 -53 40.5 -84t107.5 -31zM441 -17q-161 0 -260.5 92.5t-99.5 244.5t114.5 238.5t330.5 99.5l243 14v87q0 57 -40.5 88.5t-113.5 31.5q-141 0 -176 -90h-318q12 162 150 256t364 94q230 0 356 -100
t126 -280v-759h-344v138h-19q-37 -71 -122 -113t-191 -42zM814 1288h-309l-292 359h356z" />
    <glyph glyph-name="aacute" unicode="&#xe1;" horiz-adv-x="1248" 
d="M570 230q84 0 141.5 49t57.5 121v73l-187 -12q-78 -6 -119 -36t-41 -80q0 -53 40.5 -84t107.5 -31zM441 -17q-161 0 -260.5 92.5t-99.5 244.5t114.5 238.5t330.5 99.5l243 14v87q0 57 -40.5 88.5t-113.5 31.5q-141 0 -176 -90h-318q12 162 150 256t364 94q230 0 356 -100
t126 -280v-759h-344v138h-19q-37 -71 -122 -113t-191 -42zM769 1288h-309l245 359h356z" />
    <glyph glyph-name="acircumflex" unicode="&#xe2;" horiz-adv-x="1248" 
d="M570 230q84 0 141.5 49t57.5 121v73l-187 -12q-78 -6 -119 -36t-41 -80q0 -53 40.5 -84t107.5 -31zM441 -17q-161 0 -260.5 92.5t-99.5 244.5t114.5 238.5t330.5 99.5l243 14v87q0 57 -40.5 88.5t-113.5 31.5q-141 0 -176 -90h-318q12 162 150 256t364 94q230 0 356 -100
t126 -280v-759h-344v138h-19q-37 -71 -122 -113t-191 -42zM805 1619l271 -359h-297l-134 202h-19l-133 -202h-297l271 359h338z" />
    <glyph glyph-name="atilde" unicode="&#xe3;" horiz-adv-x="1248" 
d="M570 230q84 0 141.5 49t57.5 121v73l-187 -12q-78 -6 -119 -36t-41 -80q0 -53 40.5 -84t107.5 -31zM441 -17q-161 0 -260.5 92.5t-99.5 244.5t114.5 238.5t330.5 99.5l243 14v87q0 57 -40.5 88.5t-113.5 31.5q-141 0 -176 -90h-318q12 162 150 256t364 94q230 0 356 -100
t126 -280v-759h-344v138h-19q-37 -71 -122 -113t-191 -42zM789 1260q-49 0 -93.5 22t-70 48t-55.5 48t-55 22q-38 0 -60 -36t-24 -100h-210q0 149 76.5 241t200.5 92q40 0 76.5 -14.5t61.5 -35t47.5 -40.5t45 -34.5t43.5 -14.5q38 0 60 34t23 97h210q0 -147 -76 -238
t-200 -91z" />
    <glyph glyph-name="adieresis" unicode="&#xe4;" horiz-adv-x="1248" 
d="M570 230q84 0 141.5 49t57.5 121v73l-187 -12q-78 -6 -119 -36t-41 -80q0 -53 40.5 -84t107.5 -31zM441 -17q-161 0 -260.5 92.5t-99.5 244.5t114.5 238.5t330.5 99.5l243 14v87q0 57 -40.5 88.5t-113.5 31.5q-141 0 -176 -90h-318q12 162 150 256t364 94q230 0 356 -100
t126 -280v-759h-344v138h-19q-37 -71 -122 -113t-191 -42zM385 1260q-76 0 -124.5 46t-48.5 118t48.5 118t124.5 46t124.5 -46t48.5 -118t-48.5 -118t-124.5 -46zM887 1260q-76 0 -124.5 46t-48.5 118t48.5 118t124.5 46t125 -46t49 -118t-49 -118t-125 -46z" />
    <glyph glyph-name="aring" unicode="&#xe5;" horiz-adv-x="1248" 
d="M570 230q84 0 141.5 49t57.5 121v73l-187 -12q-78 -6 -119 -36t-41 -80q0 -53 40.5 -84t107.5 -31zM441 -17q-161 0 -260.5 92.5t-99.5 244.5t114.5 238.5t330.5 99.5l243 14v87q0 57 -40.5 88.5t-113.5 31.5q-141 0 -176 -90h-318q12 162 150 256t364 94q230 0 356 -100
t126 -280v-759h-344v138h-19q-37 -71 -122 -113t-191 -42zM637 1260q-110 0 -182 69t-72 176q0 106 71.5 174t182.5 68q110 0 180.5 -68t70.5 -174q0 -107 -71 -176t-180 -69zM636 1407q43 0 70 27.5t27 69.5q0 41 -28 68.5t-69 27.5q-42 -1 -69.5 -28t-27.5 -68
q0 -43 27.5 -70t69.5 -27z" />
    <glyph glyph-name="ae" unicode="&#xe6;" horiz-adv-x="1918" 
d="M1330 -26q-131 0 -235 49t-160 136h-19q-68 -86 -173.5 -135.5t-232.5 -49.5q-196 0 -312.5 96.5t-116.5 249.5q0 152 114.5 238.5t330.5 99.5l243 14v63q0 71 -42.5 107.5t-111.5 36.5q-141 0 -176 -90h-318q11 153 141.5 251.5t325.5 98.5q249 0 362 -148h19
q63 69 154.5 108.5t200.5 39.5q235 0 373 -151t138 -406v-104h-735v-29q2 -101 63 -162t160 -61q134 0 185 102h320q-29 -161 -164.5 -257.5t-333.5 -96.5zM1302 888q-87 0 -143 -57.5t-59 -150.5h395q-5 94 -58 151t-135 57zM573 225q89 0 142.5 49.5t53.5 117.5v81
l-187 -12q-78 -6 -119 -36.5t-41 -82.5q0 -54 41 -85.5t110 -31.5z" />
    <glyph glyph-name="ccedilla" unicode="&#xe7;" horiz-adv-x="1233" 
d="M1158 701h-325q-11 79 -59 122.5t-128 43.5q-208 0 -208 -309q0 -312 208 -312q163 0 187 158h325q-14 -177 -123 -288.5t-292 -135.5l-33 -78q91 -7 138.5 -53.5t47.5 -128.5q0 -101 -72.5 -156t-206.5 -55q-92 0 -148 18v144q40 -14 113 -14q108 0 108 53
q0 28 -28.5 40.5t-91.5 12.5h-61v128l39 88q-228 26 -346.5 173.5t-118.5 405.5q0 284 144 432.5t419 148.5q228 0 361.5 -116t150.5 -322z" />
    <glyph glyph-name="egrave" unicode="&#xe8;" horiz-adv-x="1262" 
d="M639 888q-87 0 -143 -56.5t-63 -150.5h404q-4 97 -56.5 152t-141.5 55zM850 328h323q-29 -163 -172 -258.5t-359 -95.5q-266 0 -412.5 150.5t-146.5 424.5q0 275 147.5 432.5t406.5 157.5q257 0 400 -148.5t143 -414.5v-98h-749v-18q2 -109 61 -172t160 -63
q77 0 128.5 27t69.5 76zM815 1288h-309l-292 359h356z" />
    <glyph glyph-name="eacute" unicode="&#xe9;" horiz-adv-x="1262" 
d="M639 888q-87 0 -143 -56.5t-63 -150.5h404q-4 97 -56.5 152t-141.5 55zM850 328h323q-29 -163 -172 -258.5t-359 -95.5q-266 0 -412.5 150.5t-146.5 424.5q0 275 147.5 432.5t406.5 157.5q257 0 400 -148.5t143 -414.5v-98h-749v-18q2 -109 61 -172t160 -63
q77 0 128.5 27t69.5 76zM770 1288h-309l245 359h356z" />
    <glyph glyph-name="ecircumflex" unicode="&#xea;" horiz-adv-x="1262" 
d="M639 888q-87 0 -143 -56.5t-63 -150.5h404q-4 97 -56.5 152t-141.5 55zM850 328h323q-29 -163 -172 -258.5t-359 -95.5q-266 0 -412.5 150.5t-146.5 424.5q0 275 147.5 432.5t406.5 157.5q257 0 400 -148.5t143 -414.5v-98h-749v-18q2 -109 61 -172t160 -63
q77 0 128.5 27t69.5 76zM806 1619l271 -359h-297l-134 202h-19l-133 -202h-297l271 359h338z" />
    <glyph glyph-name="edieresis" unicode="&#xeb;" horiz-adv-x="1262" 
d="M639 888q-87 0 -143 -56.5t-63 -150.5h404q-4 97 -56.5 152t-141.5 55zM850 328h323q-29 -163 -172 -258.5t-359 -95.5q-266 0 -412.5 150.5t-146.5 424.5q0 275 147.5 432.5t406.5 157.5q257 0 400 -148.5t143 -414.5v-98h-749v-18q2 -109 61 -172t160 -63
q77 0 128.5 27t69.5 76zM386 1260q-76 0 -124.5 46t-48.5 118t48.5 118t124.5 46t124.5 -46t48.5 -118t-48.5 -118t-124.5 -46zM888 1260q-76 0 -124.5 46t-48.5 118t48.5 118t124.5 46t125 -46t49 -118t-49 -118t-125 -46z" />
    <glyph glyph-name="igrave" unicode="&#xec;" horiz-adv-x="631" 
d="M138 0v1113h354v-1113h-354zM493 1288h-309l-292 359h356z" />
    <glyph glyph-name="iacute" unicode="&#xed;" horiz-adv-x="631" 
d="M138 0v1113h354v-1113h-354zM448 1288h-309l245 359h356z" />
    <glyph glyph-name="icircumflex" unicode="&#xee;" horiz-adv-x="631" 
d="M138 0v1113h354v-1113h-354zM484 1619l271 -359h-297l-134 202h-19l-133 -202h-297l271 359h338z" />
    <glyph glyph-name="idieresis" unicode="&#xef;" horiz-adv-x="631" 
d="M138 0v1113h354v-1113h-354zM64 1260q-76 0 -124.5 46t-48.5 118t48.5 118t124.5 46t124.5 -46t48.5 -118t-48.5 -118t-124.5 -46zM566 1260q-76 0 -124.5 46t-48.5 118t48.5 118t124.5 46t125 -46t49 -118t-49 -118t-125 -46z" />
    <glyph glyph-name="eth" unicode="&#xf0;" horiz-adv-x="1323" 
d="M658 -17q-255 0 -411.5 154.5t-156.5 405.5q0 225 128.5 367t333.5 142q83 0 152.5 -29t111.5 -80h18q-19 57 -64 126.5t-102 127.5l-287 -97l-67 155l227 76q-86 69 -264 181h446q52 -37 105 -84l273 92l69 -155l-203 -68q267 -294 267 -680q0 -286 -158 -460t-418 -174
zM667 819q-98 0 -156 -75t-58 -204t57.5 -204t156.5 -75q100 0 158 74.5t58 204.5q0 128 -58 203.5t-158 75.5z" />
    <glyph glyph-name="ntilde" unicode="&#xf1;" horiz-adv-x="1332" 
d="M138 0v1113h344v-181h19q37 96 122 151.5t204 55.5q184 0 280.5 -109t96.5 -311v-719h-354v640q0 210 -175 210q-85 0 -134.5 -58.5t-49.5 -155.5v-636h-353zM835 1260q-49 0 -93.5 22t-70 48t-55.5 48t-55 22q-38 0 -60 -36t-24 -100h-210q0 149 76.5 241t200.5 92
q40 0 76.5 -14.5t61.5 -35t47.5 -40.5t45 -34.5t43.5 -14.5q38 0 60 34t23 97h210q0 -147 -76 -238t-200 -91z" />
    <glyph glyph-name="ograve" unicode="&#xf2;" horiz-adv-x="1300" 
d="M650 -26q-267 0 -417 154t-150 429q0 270 152 426t415 156q264 0 415.5 -155.5t151.5 -426.5q0 -275 -149.5 -429t-417.5 -154zM650 244q97 0 150.5 82t53.5 231q0 146 -54 229t-150 83t-150 -83t-54 -229q0 -149 53.5 -231t150.5 -82zM828 1288h-309l-292 359h356z" />
    <glyph glyph-name="oacute" unicode="&#xf3;" horiz-adv-x="1300" 
d="M650 -26q-267 0 -417 154t-150 429q0 270 152 426t415 156q264 0 415.5 -155.5t151.5 -426.5q0 -275 -149.5 -429t-417.5 -154zM650 244q97 0 150.5 82t53.5 231q0 146 -54 229t-150 83t-150 -83t-54 -229q0 -149 53.5 -231t150.5 -82zM783 1288h-309l245 359h356z" />
    <glyph glyph-name="ocircumflex" unicode="&#xf4;" horiz-adv-x="1300" 
d="M650 -26q-267 0 -417 154t-150 429q0 270 152 426t415 156q264 0 415.5 -155.5t151.5 -426.5q0 -275 -149.5 -429t-417.5 -154zM650 244q97 0 150.5 82t53.5 231q0 146 -54 229t-150 83t-150 -83t-54 -229q0 -149 53.5 -231t150.5 -82zM819 1619l271 -359h-297l-134 202
h-19l-133 -202h-297l271 359h338z" />
    <glyph glyph-name="otilde" unicode="&#xf5;" horiz-adv-x="1300" 
d="M650 -26q-267 0 -417 154t-150 429q0 270 152 426t415 156q264 0 415.5 -155.5t151.5 -426.5q0 -275 -149.5 -429t-417.5 -154zM650 244q97 0 150.5 82t53.5 231q0 146 -54 229t-150 83t-150 -83t-54 -229q0 -149 53.5 -231t150.5 -82zM803 1260q-49 0 -93.5 22t-70 48
t-55.5 48t-55 22q-38 0 -60 -36t-24 -100h-210q0 149 76.5 241t200.5 92q40 0 76.5 -14.5t61.5 -35t47.5 -40.5t45 -34.5t43.5 -14.5q38 0 60 34t23 97h210q0 -147 -76 -238t-200 -91z" />
    <glyph glyph-name="odieresis" unicode="&#xf6;" horiz-adv-x="1300" 
d="M650 -26q-267 0 -417 154t-150 429q0 270 152 426t415 156q264 0 415.5 -155.5t151.5 -426.5q0 -275 -149.5 -429t-417.5 -154zM650 244q97 0 150.5 82t53.5 231q0 146 -54 229t-150 83t-150 -83t-54 -229q0 -149 53.5 -231t150.5 -82zM399 1260q-76 0 -124.5 46
t-48.5 118t48.5 118t124.5 46t124.5 -46t48.5 -118t-48.5 -118t-124.5 -46zM901 1260q-76 0 -124.5 46t-48.5 118t48.5 118t124.5 46t125 -46t49 -118t-49 -118t-125 -46z" />
    <glyph glyph-name="divide" unicode="&#xf7;" horiz-adv-x="1461" 
d="M731 816q-85 0 -137.5 48.5t-52.5 127.5t52 127.5t138 48.5q85 0 137 -48.5t52 -127.5t-52 -127.5t-137 -48.5zM731 4q-85 0 -137.5 48.5t-52.5 127.5t52 127.5t138 48.5q85 0 137 -48.5t52 -127.5t-52 -127.5t-137 -48.5zM1287 459h-1113v255h1113v-255z" />
    <glyph glyph-name="oslash" unicode="&#xf8;" horiz-adv-x="1300" 
d="M833 713l-270 -448q37 -21 87 -21q97 0 150.5 82t53.5 231q0 90 -21 156zM480 361l282 469q-48 39 -112 39q-96 0 -150 -83t-54 -229q0 -117 34 -196zM1089 1137l-68 -113q196 -156 196 -467q0 -275 -149.5 -429t-417.5 -154q-131 0 -239 40l-61 -101l-103 61l57 95
q-107 73 -164 197.5t-57 290.5q0 270 152 426t415 156q149 0 267 -52l64 107z" />
    <glyph glyph-name="ugrave" unicode="&#xf9;" horiz-adv-x="1340" 
d="M1202 1113v-1113h-344v180h-19q-82 -206 -316 -206q-179 0 -287 110.5t-108 301.5v727h353v-640q0 -101 47.5 -154.5t133.5 -53.5q89 0 137.5 56.5t48.5 155.5v636h354zM843 1288h-309l-292 359h356z" />
    <glyph glyph-name="uacute" unicode="&#xfa;" horiz-adv-x="1340" 
d="M1202 1113v-1113h-344v180h-19q-82 -206 -316 -206q-179 0 -287 110.5t-108 301.5v727h353v-640q0 -101 47.5 -154.5t133.5 -53.5q89 0 137.5 56.5t48.5 155.5v636h354zM798 1288h-309l245 359h356z" />
    <glyph glyph-name="ucircumflex" unicode="&#xfb;" horiz-adv-x="1340" 
d="M1202 1113v-1113h-344v180h-19q-82 -206 -316 -206q-179 0 -287 110.5t-108 301.5v727h353v-640q0 -101 47.5 -154.5t133.5 -53.5q89 0 137.5 56.5t48.5 155.5v636h354zM834 1619l271 -359h-297l-134 202h-19l-133 -202h-297l271 359h338z" />
    <glyph glyph-name="udieresis" unicode="&#xfc;" horiz-adv-x="1340" 
d="M1202 1113v-1113h-344v180h-19q-82 -206 -316 -206q-179 0 -287 110.5t-108 301.5v727h353v-640q0 -101 47.5 -154.5t133.5 -53.5q89 0 137.5 56.5t48.5 155.5v636h354zM414 1260q-76 0 -124.5 46t-48.5 118t48.5 118t124.5 46t124.5 -46t48.5 -118t-48.5 -118
t-124.5 -46zM916 1260q-76 0 -124.5 46t-48.5 118t48.5 118t124.5 46t125 -46t49 -118t-49 -118t-125 -46z" />
    <glyph glyph-name="yacute" unicode="&#xfd;" horiz-adv-x="1282" 
d="M298 -405q-124 0 -129 1v269q10 -2 62 -2q176 0 194 97l5 31l-380 1122h391l199 -816h19l199 816h374l-358 -1111q-71 -222 -203.5 -314.5t-372.5 -92.5zM783 1288h-309l245 359h356z" />
    <glyph glyph-name="thorn" unicode="&#xfe;" horiz-adv-x="1382" 
d="M839 1130q211 0 328 -150t117 -423q0 -272 -116 -423t-325 -151q-119 0 -205.5 49.5t-124.5 138.5h-19v-510h-354v1847h352v-576h19q41 94 127 146t201 52zM706 261q101 0 158 78.5t57 217.5q0 137 -57 216t-157 79t-157.5 -79t-58.5 -217q1 -139 58 -217t157 -78z" />
    <glyph glyph-name="ydieresis" unicode="&#xff;" horiz-adv-x="1282" 
d="M298 -405q-124 0 -129 1v269q10 -2 62 -2q176 0 194 97l5 31l-380 1122h391l199 -816h19l199 816h374l-358 -1111q-71 -222 -203.5 -314.5t-372.5 -92.5zM399 1260q-76 0 -124.5 46t-48.5 118t48.5 118t124.5 46t124.5 -46t48.5 -118t-48.5 -118t-124.5 -46zM901 1260
q-76 0 -124.5 46t-48.5 118t48.5 118t124.5 46t125 -46t49 -118t-49 -118t-125 -46z" />
    <glyph glyph-name="Amacron" unicode="&#x100;" horiz-adv-x="1563" 
d="M1091 0l-90 317h-471l-93 -317h-364l484 1443h449l485 -1443h-400zM758 1118l-158 -537h332l-155 537h-19zM1173 1835v-198h-782v198h782z" />
    <glyph glyph-name="amacron" unicode="&#x101;" horiz-adv-x="1248" 
d="M570 230q84 0 141.5 49t57.5 121v73l-187 -12q-78 -6 -119 -36t-41 -80q0 -53 40.5 -84t107.5 -31zM441 -17q-161 0 -260.5 92.5t-99.5 244.5t114.5 238.5t330.5 99.5l243 14v87q0 57 -40.5 88.5t-113.5 31.5q-141 0 -176 -90h-318q12 162 150 256t364 94q230 0 356 -100
t126 -280v-759h-344v138h-19q-37 -71 -122 -113t-191 -42zM1020 1525v-198h-768v198h768z" />
    <glyph glyph-name="Abreve" unicode="&#x102;" horiz-adv-x="1563" 
d="M1091 0l-90 317h-471l-93 -317h-364l484 1443h449l485 -1443h-400zM758 1118l-158 -537h332l-155 537h-19zM364 1932h236q2 -74 51 -117.5t131 -43.5t131 43.5t51 117.5h236q0 -157 -113.5 -254t-304.5 -97t-304.5 97t-113.5 254z" />
    <glyph glyph-name="abreve" unicode="&#x103;" horiz-adv-x="1248" 
d="M570 230q84 0 141.5 49t57.5 121v73l-187 -12q-78 -6 -119 -36t-41 -80q0 -53 40.5 -84t107.5 -31zM441 -17q-161 0 -260.5 92.5t-99.5 244.5t114.5 238.5t330.5 99.5l243 14v87q0 57 -40.5 88.5t-113.5 31.5q-141 0 -176 -90h-318q12 162 150 256t364 94q230 0 356 -100
t126 -280v-759h-344v138h-19q-37 -71 -122 -113t-191 -42zM218 1620h236q2 -78 51 -123.5t131 -45.5t131 45.5t51 123.5h236q0 -160 -113 -260t-305 -100t-305 100t-113 260z" />
    <glyph glyph-name="Aogonek" unicode="&#x104;" horiz-adv-x="1563" 
d="M758 1118l-158 -537h332l-155 537h-19zM1393 -456q-59 -23 -156 -23q-130 0 -211 65t-81 166q0 68 41.5 132.5t108.5 102.5l-94 330h-471l-93 -317h-364l484 1443h449l485 -1443l-71 -6q-82 -12 -150.5 -66t-68.5 -118q0 -44 31.5 -69.5t89.5 -25.5q51 0 71 8v-179z" />
    <glyph glyph-name="aogonek" unicode="&#x105;" horiz-adv-x="1248" 
d="M570 230q84 0 141.5 49t57.5 121v73l-187 -12q-160 -12 -160 -116q0 -52 40 -83.5t108 -31.5zM1066 -456q-57 -23 -156 -23q-129 0 -210 64.5t-81 166.5q0 70 43 135t111 101v150h-19q-37 -71 -122 -113t-191 -42q-162 0 -261 92.5t-99 244.5q0 151 114.5 238t330.5 100
l243 14v87q0 57 -40.5 88.5t-113.5 31.5q-141 0 -176 -90h-318q12 162 150 256t364 94q229 0 355.5 -99.5t126.5 -280.5v-759l-49 -7q-81 -16 -137.5 -67.5t-56.5 -115.5q0 -43 31 -69t91 -26q50 0 70 8v-179z" />
    <glyph glyph-name="Cacute" unicode="&#x106;" horiz-adv-x="1545" 
d="M800 -39q-324 0 -511 204t-187 557t186.5 556.5t511.5 203.5q179 0 325.5 -73.5t232.5 -204t91 -291.5h-353q-14 118 -96 190.5t-200 72.5q-151 0 -237.5 -121t-86.5 -332q0 -212 87 -334t238 -122q119 0 200 70.5t97 186.5h352q-9 -248 -191 -405.5t-459 -157.5z
M957 1597h-316l258 326h362z" />
    <glyph glyph-name="cacute" unicode="&#x107;" horiz-adv-x="1233" 
d="M1158 701h-325q-11 79 -59 122.5t-128 43.5q-208 0 -208 -309q0 -312 208 -312q163 0 187 158h325q-16 -201 -151.5 -315.5t-360.5 -114.5q-275 0 -419 149.5t-144 434.5q0 284 144 432.5t419 148.5q228 0 361.5 -116t150.5 -322zM778 1288h-309l245 359h356z" />
    <glyph glyph-name="Ccircumflex" unicode="&#x108;" horiz-adv-x="1545" 
d="M800 -39q-324 0 -511 204t-187 557t186.5 556.5t511.5 203.5q179 0 325.5 -73.5t232.5 -204t91 -291.5h-353q-14 118 -96 190.5t-200 72.5q-151 0 -237.5 -121t-86.5 -332q0 -212 87 -334t238 -122q119 0 200 70.5t97 186.5h352q-9 -248 -191 -405.5t-459 -157.5z
M635 1947h330l275 -350h-298l-132 190h-20l-132 -190h-298z" />
    <glyph glyph-name="ccircumflex" unicode="&#x109;" horiz-adv-x="1233" 
d="M1158 701h-325q-11 79 -59 122.5t-128 43.5q-208 0 -208 -309q0 -312 208 -312q163 0 187 158h325q-16 -201 -151.5 -315.5t-360.5 -114.5q-275 0 -419 149.5t-144 434.5q0 284 144 432.5t419 148.5q228 0 361.5 -116t150.5 -322zM814 1619l271 -359h-297l-134 202h-19
l-133 -202h-297l271 359h338z" />
    <glyph glyph-name="Cdotaccent" unicode="&#x10a;" horiz-adv-x="1545" 
d="M800 -39q-324 0 -511 204t-187 557t186.5 556.5t511.5 203.5q179 0 325.5 -73.5t232.5 -204t91 -291.5h-353q-14 118 -96 190.5t-200 72.5q-151 0 -237.5 -121t-86.5 -332q0 -212 87 -334t238 -122q119 0 200 70.5t97 186.5h352q-9 -248 -191 -405.5t-459 -157.5z
M800 1582q-79 0 -128 48.5t-49 123.5t49 123.5t128 48.5q78 0 127 -48.5t49 -123.5t-49 -123.5t-127 -48.5z" />
    <glyph glyph-name="cdotaccent" unicode="&#x10b;" horiz-adv-x="1233" 
d="M1158 701h-325q-11 79 -59 122.5t-128 43.5q-208 0 -208 -309q0 -312 208 -312q163 0 187 158h325q-16 -201 -151.5 -315.5t-360.5 -114.5q-275 0 -419 149.5t-144 434.5q0 284 144 432.5t419 148.5q228 0 361.5 -116t150.5 -322zM645 1274q-79 0 -128.5 49t-49.5 124
q0 76 49.5 125t128.5 49t128.5 -49t49.5 -125q0 -75 -49.5 -124t-128.5 -49z" />
    <glyph glyph-name="Ccaron" unicode="&#x10c;" horiz-adv-x="1545" 
d="M800 -39q-324 0 -511 204t-187 557t186.5 556.5t511.5 203.5q179 0 325.5 -73.5t232.5 -204t91 -291.5h-353q-14 118 -96 190.5t-200 72.5q-151 0 -237.5 -121t-86.5 -332q0 -212 87 -334t238 -122q119 0 200 70.5t97 186.5h352q-9 -248 -191 -405.5t-459 -157.5z
M649 1597l-271 326h280l131 -173h22l131 173h280l-271 -326h-302z" />
    <glyph glyph-name="ccaron" unicode="&#x10d;" horiz-adv-x="1233" 
d="M1158 701h-325q-11 79 -59 122.5t-128 43.5q-208 0 -208 -309q0 -312 208 -312q163 0 187 158h325q-16 -201 -151.5 -315.5t-360.5 -114.5q-275 0 -419 149.5t-144 434.5q0 284 144 432.5t419 148.5q228 0 361.5 -116t150.5 -322zM814 1260h-338l-271 359h297l133 -202
h19l134 202h297z" />
    <glyph glyph-name="Dcaron" unicode="&#x10e;" horiz-adv-x="1553" 
d="M170 1444h606q322 0 498.5 -185t176.5 -523q0 -355 -174.5 -545.5t-500.5 -190.5h-606v1444zM537 1149v-854h173q179 0 273 110t94 324q0 201 -96.5 310.5t-270.5 109.5h-173zM512 1596l-271 326h280l131 -173h22l131 173h280l-271 -326h-302z" />
    <glyph glyph-name="dcaron" unicode="&#x10f;" horiz-adv-x="1613" 
d="M1355 1530h293l-50 -510h-243v510zM530 -17q-209 0 -328 153.5t-119 422.5q0 266 119.5 418.5t327.5 152.5q112 0 197.5 -52t126.5 -144h19v596h354v-1530h-345v174h-19q-41 -90 -129 -140.5t-204 -50.5zM660 852q-100 0 -157 -78.5t-57 -216.5q0 -139 56.5 -217.5
t157.5 -78.5t158 78.5t57 216.5t-57.5 217t-157.5 79z" />
    <glyph glyph-name="Dcroat" unicode="&#x110;" horiz-adv-x="1554" 
d="M538 295h173q179 0 273 110t94 324q0 201 -96.5 310.5t-270.5 109.5h-173v-297h215v-252h-215v-305zM171 1444h606q322 0 498.5 -185t176.5 -523q0 -355 -174.5 -545.5t-500.5 -190.5h-606v600h-108v252h108v592z" />
    <glyph glyph-name="dcroat" unicode="&#x111;" horiz-adv-x="1392" 
d="M678 261q101 0 158.5 78.5t57.5 216.5q0 137 -58 216.5t-158 79.5t-157 -79t-57 -216q0 -139 57 -217.5t157 -78.5zM1389 1410v-164h-144v-1246h-344v174h-19q-41 -90 -129.5 -140.5t-204.5 -50.5q-208 0 -327.5 153.5t-119.5 422.5q0 266 119.5 418.5t328.5 152.5
q111 0 196.5 -52t126.5 -144h19v312h-219v164h219v120h354v-120h144z" />
    <glyph glyph-name="Emacron" unicode="&#x112;" horiz-adv-x="1302" 
d="M1159 295v-295h-989v1443h989v-295h-622v-288h585v-270h-585v-295h622zM1056 1835v-198h-782v198h782z" />
    <glyph glyph-name="emacron" unicode="&#x113;" horiz-adv-x="1262" 
d="M639 888q-87 0 -143 -56.5t-63 -150.5h404q-4 97 -56.5 152t-141.5 55zM850 328h323q-29 -163 -172 -258.5t-359 -95.5q-266 0 -412.5 150.5t-146.5 424.5q0 275 147.5 432.5t406.5 157.5q257 0 400 -148.5t143 -414.5v-98h-749v-18q2 -109 61 -172t160 -63
q77 0 128.5 27t69.5 76zM1021 1525v-198h-768v198h768z" />
    <glyph glyph-name="Ebreve" unicode="&#x114;" horiz-adv-x="1302" 
d="M1159 295v-295h-989v1443h989v-295h-622v-288h585v-270h-585v-295h622zM247 1932h236q2 -74 51 -117.5t131 -43.5t131 43.5t51 117.5h236q0 -157 -113.5 -254t-304.5 -97t-304.5 97t-113.5 254z" />
    <glyph glyph-name="ebreve" unicode="&#x115;" horiz-adv-x="1262" 
d="M639 888q-87 0 -143 -56.5t-63 -150.5h404q-4 97 -56.5 152t-141.5 55zM850 328h323q-29 -163 -172 -258.5t-359 -95.5q-266 0 -412.5 150.5t-146.5 424.5q0 275 147.5 432.5t406.5 157.5q257 0 400 -148.5t143 -414.5v-98h-749v-18q2 -109 61 -172t160 -63
q77 0 128.5 27t69.5 76zM219 1620h236q2 -78 51 -123.5t131 -45.5t131 45.5t51 123.5h236q0 -160 -113 -260t-305 -100t-305 100t-113 260z" />
    <glyph glyph-name="Edotaccent" unicode="&#x116;" horiz-adv-x="1302" 
d="M1159 295v-295h-989v1443h989v-295h-622v-288h585v-270h-585v-295h622zM665 1581q-79 0 -128 48.5t-49 123.5t49 123.5t128 48.5q78 0 127 -48.5t49 -123.5t-49 -123.5t-127 -48.5z" />
    <glyph glyph-name="edotaccent" unicode="&#x117;" horiz-adv-x="1262" 
d="M639 888q-87 0 -143 -56.5t-63 -150.5h404q-4 97 -56.5 152t-141.5 55zM850 328h323q-29 -163 -172 -258.5t-359 -95.5q-266 0 -412.5 150.5t-146.5 424.5q0 275 147.5 432.5t406.5 157.5q257 0 400 -148.5t143 -414.5v-98h-749v-18q2 -109 61 -172t160 -63
q77 0 128.5 27t69.5 76zM637 1274q-79 0 -128.5 49t-49.5 124q0 76 49.5 125t128.5 49t128.5 -49t49.5 -125q0 -75 -49.5 -124t-128.5 -49z" />
    <glyph glyph-name="Eogonek" unicode="&#x118;" horiz-adv-x="1302" 
d="M170 0v1443h989v-295h-622v-288h585v-270h-585v-295h622v-292l-48 -10q-73 -16 -134.5 -68t-61.5 -115q0 -44 31.5 -69.5t89.5 -25.5q52 0 70 8v-179q-59 -23 -156 -23q-130 0 -210.5 65t-80.5 166q0 68 39 130.5t103 98.5v19h-631z" />
    <glyph glyph-name="eogonek" unicode="&#x119;" horiz-adv-x="1262" 
d="M874 -479q-130 0 -211 65t-81 166q0 62 37 119.5t95 88.5v19q-28 -5 -72 -5q-266 0 -412.5 150.5t-146.5 424.5q0 275 147.5 432.5t406.5 157.5q257 0 400 -148.5t143 -414.5v-98h-749v-18q2 -109 61 -172t160 -63q77 0 128.5 27t69.5 76h323q-9 -70 -60 -151.5
t-122 -137.5q-153 -122 -153 -221q0 -50 31 -76.5t90 -26.5q51 0 71 8v-179q-59 -23 -156 -23zM639 888q-87 0 -143 -56.5t-63 -150.5h404q-4 97 -56.5 152t-141.5 55z" />
    <glyph glyph-name="Ecaron" unicode="&#x11a;" horiz-adv-x="1302" 
d="M1159 295v-295h-989v1443h989v-295h-622v-288h585v-270h-585v-295h622zM514 1596l-271 326h280l131 -173h22l131 173h280l-271 -326h-302z" />
    <glyph glyph-name="ecaron" unicode="&#x11b;" horiz-adv-x="1262" 
d="M639 888q-87 0 -143 -56.5t-63 -150.5h404q-4 97 -56.5 152t-141.5 55zM850 328h323q-29 -163 -172 -258.5t-359 -95.5q-266 0 -412.5 150.5t-146.5 424.5q0 275 147.5 432.5t406.5 157.5q257 0 400 -148.5t143 -414.5v-98h-749v-18q2 -109 61 -172t160 -63
q77 0 128.5 27t69.5 76zM806 1260h-338l-271 359h297l133 -202h19l134 202h297z" />
    <glyph glyph-name="Gcircumflex" unicode="&#x11c;" horiz-adv-x="1572" 
d="M1468 601q0 -298 -174.5 -469t-480.5 -171q-333 0 -522 203t-189 559q0 352 188 555.5t513 203.5q264 0 443.5 -140.5t206.5 -369.5h-362q-27 95 -103.5 149.5t-184.5 54.5q-154 0 -240.5 -119t-86.5 -330q0 -213 93.5 -336.5t251.5 -123.5q125 0 205 67t87 177l1 24
h-264v252h618v-186zM638 1948h330l275 -350h-298l-132 190h-20l-132 -190h-298z" />
    <glyph glyph-name="gcircumflex" unicode="&#x11d;" horiz-adv-x="1360" 
d="M655 276q102 0 159 76.5t57 210.5q0 135 -57.5 212t-158.5 77q-100 0 -156.5 -77t-56.5 -211t56 -211t157 -77zM645 -419q-232 0 -377 91.5t-156 241.5h344q10 -45 63 -71.5t136 -26.5q102 0 158 45.5t56 128.5v201h-19q-87 -175 -328 -175q-204 0 -323.5 147.5
t-119.5 399.5q0 263 120.5 415t330.5 152q111 0 199 -52.5t130 -143.5h19v179h345v-1100q0 -199 -156 -315.5t-422 -116.5zM839 1619l271 -359h-297l-134 202h-19l-133 -202h-297l271 359h338z" />
    <glyph glyph-name="Gbreve" unicode="&#x11e;" horiz-adv-x="1572" 
d="M1468 601q0 -298 -174.5 -469t-480.5 -171q-333 0 -522 203t-189 559q0 352 188 555.5t513 203.5q264 0 443.5 -140.5t206.5 -369.5h-362q-27 95 -103.5 149.5t-184.5 54.5q-154 0 -240.5 -119t-86.5 -330q0 -213 93.5 -336.5t251.5 -123.5q125 0 205 67t87 177l1 24
h-264v252h618v-186zM385 1934h236q2 -74 51 -117.5t131 -43.5t131 43.5t51 117.5h236q0 -157 -113.5 -254t-304.5 -97t-304.5 97t-113.5 254z" />
    <glyph glyph-name="gbreve" unicode="&#x11f;" horiz-adv-x="1360" 
d="M655 276q102 0 159 76.5t57 210.5q0 135 -57.5 212t-158.5 77q-100 0 -156.5 -77t-56.5 -211t56 -211t157 -77zM645 -419q-232 0 -377 91.5t-156 241.5h344q10 -45 63 -71.5t136 -26.5q102 0 158 45.5t56 128.5v201h-19q-87 -175 -328 -175q-204 0 -323.5 147.5
t-119.5 399.5q0 263 120.5 415t330.5 152q111 0 199 -52.5t130 -143.5h19v179h345v-1100q0 -199 -156 -315.5t-422 -116.5zM252 1620h236q2 -78 51 -123.5t131 -45.5t131 45.5t51 123.5h236q0 -160 -113 -260t-305 -100t-305 100t-113 260z" />
    <glyph glyph-name="Gdotaccent" unicode="&#x120;" horiz-adv-x="1572" 
d="M1468 601q0 -298 -174.5 -469t-480.5 -171q-333 0 -522 203t-189 559q0 352 188 555.5t513 203.5q264 0 443.5 -140.5t206.5 -369.5h-362q-27 95 -103.5 149.5t-184.5 54.5q-154 0 -240.5 -119t-86.5 -330q0 -213 93.5 -336.5t251.5 -123.5q125 0 205 67t87 177l1 24
h-264v252h618v-186zM803 1583q-79 0 -128 48.5t-49 123.5t49 123.5t128 48.5q78 0 127 -48.5t49 -123.5t-49 -123.5t-127 -48.5z" />
    <glyph glyph-name="gdotaccent" unicode="&#x121;" horiz-adv-x="1360" 
d="M655 276q102 0 159 76.5t57 210.5q0 135 -57.5 212t-158.5 77q-100 0 -156.5 -77t-56.5 -211t56 -211t157 -77zM645 -419q-232 0 -377 91.5t-156 241.5h344q10 -45 63 -71.5t136 -26.5q102 0 158 45.5t56 128.5v201h-19q-87 -175 -328 -175q-204 0 -323.5 147.5
t-119.5 399.5q0 263 120.5 415t330.5 152q111 0 199 -52.5t130 -143.5h19v179h345v-1100q0 -199 -156 -315.5t-422 -116.5zM670 1274q-79 0 -128.5 49t-49.5 124q0 76 49.5 125t128.5 49t128.5 -49t49.5 -125q0 -75 -49.5 -124t-128.5 -49z" />
    <glyph glyph-name="Gcommaaccent" unicode="&#x122;" horiz-adv-x="1572" 
d="M1468 601q0 -298 -174.5 -469t-480.5 -171q-333 0 -522 203t-189 559q0 352 188 555.5t513 203.5q264 0 443.5 -140.5t206.5 -369.5h-362q-27 95 -103.5 149.5t-184.5 54.5q-154 0 -240.5 -119t-86.5 -330q0 -213 93.5 -336.5t251.5 -123.5q125 0 205 67t87 177l1 24
h-264v252h618v-186zM818 -505h-306l148 350h351z" />
    <glyph glyph-name="gcommaaccent" unicode="&#x123;" horiz-adv-x="1360" 
d="M655 276q102 0 159 76.5t57 210.5q0 135 -57.5 212t-158.5 77q-100 0 -156.5 -77t-56.5 -211t56 -211t157 -77zM645 -419q-232 0 -377 91.5t-156 241.5h344q10 -45 63 -71.5t136 -26.5q102 0 158 45.5t56 128.5v201h-19q-87 -175 -328 -175q-204 0 -323.5 147.5
t-119.5 399.5q0 263 120.5 415t330.5 152q111 0 199 -52.5t130 -143.5h19v179h345v-1100q0 -199 -156 -315.5t-422 -116.5zM704 1643h306l-148 -350h-351z" />
    <glyph glyph-name="Hcircumflex" unicode="&#x124;" horiz-adv-x="1648" 
d="M1478 0h-366v582h-575v-582h-367v1443h367v-566h575v566h366v-1443zM659 1946h330l275 -350h-298l-132 190h-20l-132 -190h-298z" />
    <glyph glyph-name="hcircumflex" unicode="&#x125;" horiz-adv-x="1355" 
d="M148 0v1530h346v-602h19q37 96 125 151t208 55q182 0 281.5 -108.5t99.5 -310.5v-715h-353v635q0 103 -46 157t-134 54q-90 0 -141.5 -59t-51.5 -156v-631h-353zM156 2033h330l275 -350h-298l-132 190h-20l-132 -190h-298z" />
    <glyph glyph-name="Hbar" unicode="&#x126;" horiz-adv-x="1648" 
d="M1112 877v170h-575v-170h575zM1602 1278v-231h-124v-1047h-366v582h-575v-582h-367v1047h-124v231h124v165h367v-165h575v165h366v-165h124z" />
    <glyph glyph-name="hbar" unicode="&#x127;" horiz-adv-x="1355" 
d="M494 928h19q37 96 125 151t208 55q182 0 281.5 -108.5t99.5 -310.5v-715h-353v635q0 103 -46 157t-134 54q-90 0 -141.5 -59t-51.5 -156v-631h-353v1246h-144v164h144v120h346v-120h218v-164h-218v-318z" />
    <glyph glyph-name="Itilde" unicode="&#x128;" horiz-adv-x="707" 
d="M537 0h-367v1443h367v-1443zM500 1568q-49 0 -93.5 22t-70 48t-55.5 48t-55 22q-38 0 -60 -36t-24 -100h-210q0 149 76.5 241t200.5 92q40 0 76.5 -14.5t61.5 -35t47.5 -40.5t45 -34.5t43.5 -14.5q38 0 60 34t23 97h210q0 -147 -76 -238t-200 -91z" />
    <glyph glyph-name="itilde" unicode="&#x129;" horiz-adv-x="631" 
d="M138 0v1113h354v-1113h-354zM468 1260q-49 0 -93.5 22t-70 48t-55.5 48t-55 22q-38 0 -60 -36t-24 -100h-210q0 149 76.5 241t200.5 92q40 0 76.5 -14.5t61.5 -35t47.5 -40.5t45 -34.5t43.5 -14.5q38 0 60 34t23 97h210q0 -147 -76 -238t-200 -91z" />
    <glyph glyph-name="Imacron" unicode="&#x12a;" horiz-adv-x="707" 
d="M537 0h-367v1443h367v-1443zM744 1835v-198h-782v198h782z" />
    <glyph glyph-name="imacron" unicode="&#x12b;" horiz-adv-x="631" 
d="M138 0v1113h354v-1113h-354zM641 1525v-198h-652v198h652z" />
    <glyph glyph-name="Ibreve" unicode="&#x12c;" horiz-adv-x="707" 
d="M537 0h-367v1443h367v-1443zM-65 1932h236q2 -74 51 -117.5t131 -43.5t131 43.5t51 117.5h236q0 -157 -113.5 -254t-304.5 -97t-304.5 97t-113.5 254z" />
    <glyph glyph-name="ibreve" unicode="&#x12d;" horiz-adv-x="631" 
d="M138 0v1113h354v-1113h-354zM-103 1620h236q2 -78 51 -123.5t131 -45.5t131 45.5t51 123.5h236q0 -160 -113 -260t-305 -100t-305 100t-113 260z" />
    <glyph glyph-name="Iogonek" unicode="&#x12e;" horiz-adv-x="707" 
d="M170 -46v1489h367v-1443l-32 -7q-74 -22 -128.5 -69t-54.5 -106q0 -48 33 -75.5t96 -27.5q34 0 70 8v-179q-57 -23 -163 -23q-130 0 -210.5 64.5t-80.5 166.5q0 63 28.5 115.5t74.5 86.5z" />
    <glyph glyph-name="iogonek" unicode="&#x12f;" horiz-adv-x="631" 
d="M315 1242q-92 0 -145.5 43t-53.5 114q0 72 53.5 115t145.5 43q93 0 146.5 -43t53.5 -115q0 -71 -53.5 -114t-146.5 -43zM138 -30v1143h354v-1113l-47 -7q-70 -18 -118.5 -66t-48.5 -109q0 -49 33.5 -76t94.5 -27q36 0 71 7v-178q-56 -23 -151 -23q-139 0 -221.5 66
t-82.5 173q0 59 31 114.5t85 95.5z" />
    <glyph glyph-name="Idotaccent" unicode="&#x130;" horiz-adv-x="707" 
d="M537 0h-367v1443h367v-1443zM353 1581q-79 0 -128 48.5t-49 123.5t49 123.5t128 48.5q78 0 127 -48.5t49 -123.5t-49 -123.5t-127 -48.5z" />
    <glyph glyph-name="dotlessi" unicode="&#x131;" horiz-adv-x="631" 
d="M138 0v1113h354v-1113h-354z" />
    <glyph glyph-name="IJ" unicode="&#x132;" horiz-adv-x="2006" 
d="M537 0h-367v1443h367v-1443zM777 458h352q1 -85 48 -135.5t126 -50.5q81 0 123.5 50t42.5 146v975h367v-978q0 -241 -139.5 -372.5t-387.5 -131.5q-244 0 -388 133.5t-144 363.5z" />
    <glyph glyph-name="ij" unicode="&#x133;" horiz-adv-x="1280" 
d="M138 0v1113h354v-1113h-354zM315 1242q-92 0 -145.5 43t-53.5 114q0 72 53.5 115t145.5 43q93 0 146.5 -43t53.5 -115q0 -71 -53.5 -114t-146.5 -43zM1132 1113v-1140q0 -170 -109 -260.5t-313 -90.5q-56 0 -103 5v253q18 -2 42 -2q69 0 99 25.5t30 82.5v1127h354z
M955 1242q-92 0 -145.5 43t-53.5 114q0 72 53.5 115t145.5 43q93 0 146.5 -43t53.5 -115q0 -71 -53.5 -114t-146.5 -43z" />
    <glyph glyph-name="Jcircumflex" unicode="&#x134;" horiz-adv-x="1299" 
d="M70 458h352q1 -85 48 -135.5t126 -50.5q81 0 123.5 50t42.5 146v975h367v-978q0 -241 -139.5 -372.5t-387.5 -131.5q-244 0 -388 133.5t-144 363.5zM781 1946h330l275 -350h-298l-132 190h-20l-132 -190h-298z" />
    <glyph glyph-name="jcircumflex" unicode="&#x135;" horiz-adv-x="631" 
d="M491 1113v-1140q0 -170 -109 -260.5t-313 -90.5q-55 0 -103 5v253q18 -2 42 -2q69 0 99 25.5t30 82.5v1127h354zM485 1619l271 -359h-297l-134 202h-19l-133 -202h-297l271 359h338z" />
    <glyph glyph-name="Kcommaaccent" unicode="&#x136;" horiz-adv-x="1507" 
d="M537 0h-367v1443h367v-620h19l480 620h394l-499 -637l528 -806h-431l-364 569l-127 -161v-408zM716 -505h-306l148 350h351z" />
    <glyph glyph-name="kcommaaccent" unicode="&#x137;" horiz-adv-x="1295" 
d="M520 697l316 416h396l-397 -478l424 -635h-412l-278 426l-68 -77v-349h-353v1530h353v-833h19zM665 -505h-306l148 350h351z" />
    <glyph glyph-name="Lacute" unicode="&#x139;" horiz-adv-x="1247" 
d="M1150 303v-303h-980v1443h367v-1140h613zM510 1596h-316l258 326h362z" />
    <glyph glyph-name="lacute" unicode="&#x13a;" horiz-adv-x="649" 
d="M148 0v1530h353v-1530h-353zM481 1683h-316l258 326h362z" />
    <glyph glyph-name="Lcommaaccent" unicode="&#x13b;" horiz-adv-x="1247" 
d="M1150 303v-303h-980v1443h367v-1140h613zM642 -505h-306l148 350h351z" />
    <glyph glyph-name="lcommaaccent" unicode="&#x13c;" horiz-adv-x="649" 
d="M148 0v1530h353v-1530h-353zM313 -505h-306l148 350h351z" />
    <glyph glyph-name="Lcaron" unicode="&#x13d;" horiz-adv-x="1247" 
d="M720 1443h286l-50 -511h-236v511zM1150 303v-303h-980v1443h367v-1140h613z" />
    <glyph glyph-name="lcaron" unicode="&#x13e;" horiz-adv-x="888" 
d="M629 1530h294l-50 -510h-244v510zM148 0v1530h353v-1530h-353z" />
    <glyph glyph-name="Lslash" unicode="&#x141;" horiz-adv-x="1247" 
d="M537 303h613v-303h-980v636l-144 -76v229l144 76v578h367v-385l209 110v-229l-209 -110v-526z" />
    <glyph glyph-name="lslash" unicode="&#x142;" horiz-adv-x="649" 
d="M623 1133v-229l-122 -65v-839h-353v650l-122 -65v229l122 65v651h353v-462z" />
    <glyph glyph-name="Nacute" unicode="&#x143;" horiz-adv-x="1601" 
d="M518 0h-348v1443h293l601 -812h19v812h348v-1443h-291l-603 820h-19v-820zM951 1596h-316l258 326h362z" />
    <glyph glyph-name="nacute" unicode="&#x144;" horiz-adv-x="1332" 
d="M138 0v1113h344v-181h19q37 96 122 151.5t204 55.5q184 0 280.5 -109t96.5 -311v-719h-354v640q0 210 -175 210q-85 0 -134.5 -58.5t-49.5 -155.5v-636h-353zM815 1288h-309l245 359h356z" />
    <glyph glyph-name="Ncommaaccent" unicode="&#x145;" horiz-adv-x="1601" 
d="M518 0h-348v1443h293l601 -812h19v812h348v-1443h-291l-603 820h-19v-820zM783 -505h-306l148 350h351z" />
    <glyph glyph-name="ncommaaccent" unicode="&#x146;" horiz-adv-x="1332" 
d="M138 0v1113h344v-181h19q37 96 122 151.5t204 55.5q184 0 280.5 -109t96.5 -311v-719h-354v640q0 210 -175 210q-85 0 -134.5 -58.5t-49.5 -155.5v-636h-353zM671 -505h-306l148 350h351z" />
    <glyph glyph-name="Ncaron" unicode="&#x147;" horiz-adv-x="1601" 
d="M518 0h-348v1443h293l601 -812h19v812h348v-1443h-291l-603 820h-19v-820zM643 1596l-271 326h280l131 -173h22l131 173h280l-271 -326h-302z" />
    <glyph glyph-name="ncaron" unicode="&#x148;" horiz-adv-x="1332" 
d="M138 0v1113h344v-181h19q37 96 122 151.5t204 55.5q184 0 280.5 -109t96.5 -311v-719h-354v640q0 210 -175 210q-85 0 -134.5 -58.5t-49.5 -155.5v-636h-353zM851 1260h-338l-271 359h297l133 -202h19l134 202h297z" />
    <glyph glyph-name="Omacron" unicode="&#x14c;" horiz-adv-x="1626" 
d="M814 1482q326 0 518 -204.5t192 -555.5q0 -352 -192 -556.5t-518 -204.5q-328 0 -520 204.5t-192 556.5q0 351 193 555.5t519 204.5zM814 1178q-153 0 -245.5 -124t-92.5 -332q0 -209 92 -333t246 -124q153 0 245 124t92 333q0 208 -92.5 332t-244.5 124zM1205 1835v-198
h-782v198h782z" />
    <glyph glyph-name="omacron" unicode="&#x14d;" horiz-adv-x="1300" 
d="M650 -26q-267 0 -417 154t-150 429q0 270 152 426t415 156q264 0 415.5 -155.5t151.5 -426.5q0 -275 -149.5 -429t-417.5 -154zM650 244q97 0 150.5 82t53.5 231q0 146 -54 229t-150 83t-150 -83t-54 -229q0 -149 53.5 -231t150.5 -82zM1034 1525v-198h-768v198h768z" />
    <glyph glyph-name="Obreve" unicode="&#x14e;" horiz-adv-x="1626" 
d="M814 1482q326 0 518 -204.5t192 -555.5q0 -352 -192 -556.5t-518 -204.5q-328 0 -520 204.5t-192 556.5q0 351 193 555.5t519 204.5zM814 1178q-153 0 -245.5 -124t-92.5 -332q0 -209 92 -333t246 -124q153 0 245 124t92 333q0 208 -92.5 332t-244.5 124zM396 1932h236
q2 -74 51 -117.5t131 -43.5t131 43.5t51 117.5h236q0 -157 -113.5 -254t-304.5 -97t-304.5 97t-113.5 254z" />
    <glyph glyph-name="obreve" unicode="&#x14f;" horiz-adv-x="1300" 
d="M650 -26q-267 0 -417 154t-150 429q0 270 152 426t415 156q264 0 415.5 -155.5t151.5 -426.5q0 -275 -149.5 -429t-417.5 -154zM650 244q97 0 150.5 82t53.5 231q0 146 -54 229t-150 83t-150 -83t-54 -229q0 -149 53.5 -231t150.5 -82zM232 1620h236q2 -78 51 -123.5
t131 -45.5t131 45.5t51 123.5h236q0 -160 -113 -260t-305 -100t-305 100t-113 260z" />
    <glyph glyph-name="Ohungarumlaut" unicode="&#x150;" horiz-adv-x="1626" 
d="M814 1482q326 0 518 -204.5t192 -555.5q0 -352 -192 -556.5t-518 -204.5q-328 0 -520 204.5t-192 556.5q0 351 193 555.5t519 204.5zM814 1178q-153 0 -245.5 -124t-92.5 -332q0 -209 92 -333t246 -124q153 0 245 124t92 333q0 208 -92.5 332t-244.5 124zM1158 1596h-265
l221 326h293zM709 1596h-265l220 326h294z" />
    <glyph glyph-name="ohungarumlaut" unicode="&#x151;" horiz-adv-x="1300" 
d="M650 -26q-267 0 -417 154t-150 429q0 270 152 426t415 156q264 0 415.5 -155.5t151.5 -426.5q0 -275 -149.5 -429t-417.5 -154zM650 244q97 0 150.5 82t53.5 231q0 146 -54 229t-150 83t-150 -83t-54 -229q0 -149 53.5 -231t150.5 -82zM734 1288l191 359h284l-221 -359
h-254zM279 1288l191 359h284l-221 -359h-254z" />
    <glyph glyph-name="OE" unicode="&#x152;" horiz-adv-x="2242" 
d="M832 1178q-155 0 -248 -124t-93 -332q0 -209 92.5 -333t248.5 -124q152 0 243 124.5t91 332.5t-91 332t-243 124zM1236 0v226h-20q-49 -119 -173 -192t-277 -73q-307 0 -478 200.5t-171 560.5q0 362 170 561t479 199q152 0 279 -73t171 -186h20v220h927v-295h-626v-288
h589v-270h-589v-295h626v-295h-927z" />
    <glyph glyph-name="oe" unicode="&#x153;" horiz-adv-x="2033" 
d="M1435 -26q-126 0 -228.5 45t-166.5 125h-19q-62 -81 -160.5 -125.5t-223.5 -44.5q-253 0 -400 155.5t-147 424.5q0 271 147 428t401 157t385 -174h19q60 82 161.5 128t229.5 46q235 0 377 -153.5t142 -409.5v-97h-748v-19q2 -109 61 -171.5t160 -62.5q159 0 198 102h320
q-29 -161 -168.5 -257.5t-339.5 -96.5zM1610 682q-5 97 -57.5 151.5t-141.5 54.5q-86 0 -142 -56t-63 -150h404zM453 555q0 -147 54 -229t151 -82t150.5 82t53.5 229q0 148 -54 231t-150 83t-150.5 -83t-54.5 -231z" />
    <glyph glyph-name="Racute" unicode="&#x154;" horiz-adv-x="1466" 
d="M537 1166v-402h217q101 0 158 53t57 147q0 92 -59 147t-157 55h-216zM537 505v-505h-367v1443h635q253 0 396 -126.5t143 -349.5q0 -136 -65 -246.5t-181 -161.5l288 -559h-412l-247 505h-190zM832 1596h-316l258 326h362z" />
    <glyph glyph-name="racute" unicode="&#x155;" horiz-adv-x="950" 
d="M138 0v1113h344v-183h19q21 86 96.5 143t177.5 57q88 0 128 -17v-301q-49 20 -152 20q-119 0 -189.5 -64t-70.5 -179v-589h-353zM618 1288h-309l245 359h356z" />
    <glyph glyph-name="Rcommaaccent" unicode="&#x156;" horiz-adv-x="1466" 
d="M537 1166v-402h217q101 0 158 53t57 147q0 92 -59 147t-157 55h-216zM537 505v-505h-367v1443h635q253 0 396 -126.5t143 -349.5q0 -136 -65 -246.5t-181 -161.5l288 -559h-412l-247 505h-190zM664 -505h-306l148 350h351z" />
    <glyph glyph-name="rcommaaccent" unicode="&#x157;" horiz-adv-x="950" 
d="M138 0v1113h344v-183h19q21 86 96.5 143t177.5 57q88 0 128 -17v-301q-49 20 -152 20q-119 0 -189.5 -64t-70.5 -179v-589h-353zM299 -505h-306l148 350h351z" />
    <glyph glyph-name="Rcaron" unicode="&#x158;" horiz-adv-x="1466" 
d="M537 1166v-402h217q101 0 158 53t57 147q0 92 -59 147t-157 55h-216zM537 505v-505h-367v1443h635q253 0 396 -126.5t143 -349.5q0 -136 -65 -246.5t-181 -161.5l288 -559h-412l-247 505h-190zM524 1596l-271 326h280l131 -173h22l131 173h280l-271 -326h-302z" />
    <glyph glyph-name="rcaron" unicode="&#x159;" horiz-adv-x="950" 
d="M138 0v1113h344v-183h19q21 86 96.5 143t177.5 57q88 0 128 -17v-301q-49 20 -152 20q-119 0 -189.5 -64t-70.5 -179v-589h-353zM654 1260h-338l-271 359h297l133 -202h19l134 202h297z" />
    <glyph glyph-name="Sacute" unicode="&#x15a;" horiz-adv-x="1423" 
d="M107 411h350q7 -79 79.5 -125.5t186.5 -46.5q103 0 167 45t64 116q0 60 -52 95.5t-176 60.5l-190 38q-198 37 -299 144t-101 277q0 212 156.5 339.5t417.5 127.5q253 0 413 -125t165 -325h-339q-6 76 -71.5 124.5t-162.5 48.5t-155.5 -42.5t-58.5 -114.5q0 -59 51 -96
t165 -59l186 -36q214 -41 313.5 -141t99.5 -272q0 -226 -162 -354.5t-446 -128.5q-274 0 -435.5 121t-165.5 329zM868 1596h-316l258 326h362z" />
    <glyph glyph-name="sacute" unicode="&#x15b;" horiz-adv-x="1206" 
d="M113 778q0 166 132 263.5t357 97.5q231 0 355.5 -87.5t134.5 -255.5h-322q-8 49 -51 76.5t-114 27.5q-69 0 -112.5 -27.5t-43.5 -72.5q0 -35 30.5 -57.5t97.5 -36.5l230 -47q165 -35 239.5 -107.5t74.5 -198.5q0 -173 -140 -276t-374 -103q-239 0 -372.5 88.5
t-148.5 256.5h341q28 -106 185 -106q73 0 116.5 27t43.5 72q0 35 -27.5 56t-94.5 35l-207 44q-330 70 -330 331zM735 1288h-309l245 359h356z" />
    <glyph glyph-name="Scircumflex" unicode="&#x15c;" horiz-adv-x="1423" 
d="M107 411h350q7 -79 79.5 -125.5t186.5 -46.5q103 0 167 45t64 116q0 60 -52 95.5t-176 60.5l-190 38q-198 37 -299 144t-101 277q0 212 156.5 339.5t417.5 127.5q253 0 413 -125t165 -325h-339q-6 76 -71.5 124.5t-162.5 48.5t-155.5 -42.5t-58.5 -114.5q0 -59 51 -96
t165 -59l186 -36q214 -41 313.5 -141t99.5 -272q0 -226 -162 -354.5t-446 -128.5q-274 0 -435.5 121t-165.5 329zM546 1946h330l275 -350h-298l-132 190h-20l-132 -190h-298z" />
    <glyph glyph-name="scircumflex" unicode="&#x15d;" horiz-adv-x="1206" 
d="M113 778q0 166 132 263.5t357 97.5q231 0 355.5 -87.5t134.5 -255.5h-322q-8 49 -51 76.5t-114 27.5q-69 0 -112.5 -27.5t-43.5 -72.5q0 -35 30.5 -57.5t97.5 -36.5l230 -47q165 -35 239.5 -107.5t74.5 -198.5q0 -173 -140 -276t-374 -103q-239 0 -372.5 88.5
t-148.5 256.5h341q28 -106 185 -106q73 0 116.5 27t43.5 72q0 35 -27.5 56t-94.5 35l-207 44q-330 70 -330 331zM771 1619l271 -359h-297l-134 202h-19l-133 -202h-297l271 359h338z" />
    <glyph glyph-name="Scedilla" unicode="&#x15e;" horiz-adv-x="1423" 
d="M717 893l186 -36q214 -41 313.5 -141t99.5 -272q0 -206 -136.5 -332.5t-380.5 -146.5l-27 -64q91 -7 138.5 -53.5t47.5 -128.5q0 -101 -72.5 -156t-206.5 -55q-92 0 -148 18v144q40 -14 113 -14q108 0 108 53q0 28 -28.5 40.5t-91.5 12.5h-61v128l33 76
q-229 23 -361 140.5t-136 304.5h350q7 -79 79.5 -125.5t186.5 -46.5q103 0 167 45t64 116q0 60 -52 95.5t-176 60.5l-190 38q-198 37 -299 144t-101 277q0 212 156.5 339.5t417.5 127.5q253 0 413 -125t165 -325h-339q-6 76 -71.5 124.5t-162.5 48.5t-155.5 -42.5
t-58.5 -114.5q0 -59 51 -96t165 -59z" />
    <glyph glyph-name="scedilla" unicode="&#x15f;" horiz-adv-x="1206" 
d="M577 706l230 -47q165 -35 239.5 -107.5t74.5 -198.5q0 -154 -112.5 -253.5t-304.5 -120.5l-33 -77q91 -7 138.5 -53.5t47.5 -128.5q0 -101 -72.5 -156t-206.5 -55q-92 0 -148 18v144q40 -14 113 -14q108 0 108 53q0 28 -28.5 40.5t-91.5 12.5h-61v128l38 87
q-193 17 -301 104t-121 237h341q28 -106 185 -106q73 0 116.5 27t43.5 72q0 35 -27.5 56t-94.5 35l-207 44q-330 70 -330 331q0 166 132 263.5t357 97.5q231 0 355.5 -87.5t134.5 -255.5h-322q-8 49 -51 76.5t-114 27.5q-69 0 -112.5 -27.5t-43.5 -72.5q0 -35 30.5 -57.5
t97.5 -36.5z" />
    <glyph glyph-name="Scaron" unicode="&#x160;" horiz-adv-x="1423" 
d="M107 411h350q7 -79 79.5 -125.5t186.5 -46.5q103 0 167 45t64 116q0 60 -52 95.5t-176 60.5l-190 38q-198 37 -299 144t-101 277q0 212 156.5 339.5t417.5 127.5q253 0 413 -125t165 -325h-339q-6 76 -71.5 124.5t-162.5 48.5t-155.5 -42.5t-58.5 -114.5q0 -59 51 -96
t165 -59l186 -36q214 -41 313.5 -141t99.5 -272q0 -226 -162 -354.5t-446 -128.5q-274 0 -435.5 121t-165.5 329zM560 1596l-271 326h280l131 -173h22l131 173h280l-271 -326h-302z" />
    <glyph glyph-name="scaron" unicode="&#x161;" horiz-adv-x="1206" 
d="M113 778q0 166 132 263.5t357 97.5q231 0 355.5 -87.5t134.5 -255.5h-322q-8 49 -51 76.5t-114 27.5q-69 0 -112.5 -27.5t-43.5 -72.5q0 -35 30.5 -57.5t97.5 -36.5l230 -47q165 -35 239.5 -107.5t74.5 -198.5q0 -173 -140 -276t-374 -103q-239 0 -372.5 88.5
t-148.5 256.5h341q28 -106 185 -106q73 0 116.5 27t43.5 72q0 35 -27.5 56t-94.5 35l-207 44q-330 70 -330 331zM771 1260h-338l-271 359h297l133 -202h19l134 202h297z" />
    <glyph glyph-name="Tcedilla" unicode="&#x162;" horiz-adv-x="1381" 
d="M1290 1148h-417v-1118h1v-29l-42 -99q91 -7 138.5 -53.5t47.5 -128.5q0 -101 -72.5 -156t-206.5 -55q-92 0 -148 18v144q40 -14 113 -14q108 0 108 53q0 28 -28.5 40.5t-91.5 12.5h-61v128l48 109h-172v1148h-416v295h1199v-295z" />
    <glyph glyph-name="tcedilla" unicode="&#x163;" horiz-adv-x="898" 
d="M803 835h-224v-451q0 -125 135 -125q46 0 89 5v-252q-65 -14 -169 -14h-14l-41 -96q91 -7 138.5 -53.5t47.5 -128.5q0 -101 -72.5 -156t-206.5 -55q-92 0 -148 18v144q40 -14 113 -14q108 0 108 53q0 28 -28.5 40.5t-91.5 12.5h-61v128l56 127q-109 28 -158.5 97.5
t-49.5 189.5v530h-171v263h171v270h353v-270h224v-263z" />
    <glyph glyph-name="Tcaron" unicode="&#x164;" horiz-adv-x="1381" 
d="M873 0h-366v1148h-416v295h1199v-295h-417v-1148zM535 1596l-271 326h280l131 -173h22l131 173h280l-271 -326h-302z" />
    <glyph glyph-name="tcaron" unicode="&#x165;" horiz-adv-x="898" 
d="M667 1741h294l-50 -511h-244v511zM226 1368h353v-270h224v-263h-224v-451q0 -125 135 -125q46 0 89 5v-252q-65 -14 -169 -14q-219 0 -313.5 71.5t-94.5 235.5v530h-171v263h171v270z" />
    <glyph glyph-name="Tbar" unicode="&#x166;" horiz-adv-x="1381" 
d="M1290 1148h-417v-344h268v-247h-268v-557h-366v557h-277v247h277v344h-416v295h1199v-295z" />
    <glyph glyph-name="tbar" unicode="&#x167;" horiz-adv-x="898" 
d="M820 491h-241v-107q0 -125 135 -125q46 0 89 5v-252q-65 -14 -169 -14q-219 0 -313.5 71.5t-94.5 235.5v186h-171v169h171v175h-171v263h171v270h353v-270h224v-263h-224v-175h241v-169z" />
    <glyph glyph-name="Utilde" unicode="&#x168;" horiz-adv-x="1586" 
d="M538 1443v-906q0 -126 66.5 -196.5t188.5 -70.5t188 70t66 197v906h367v-945q0 -243 -170 -390t-451 -147t-451.5 147t-170.5 390v945h367zM940 1568q-49 0 -93.5 22t-70 48t-55.5 48t-55 22q-38 0 -60 -36t-24 -100h-210q0 149 76.5 241t200.5 92q40 0 76.5 -14.5
t61.5 -35t47.5 -40.5t45 -34.5t43.5 -14.5q38 0 60 34t23 97h210q0 -147 -76 -238t-200 -91z" />
    <glyph glyph-name="utilde" unicode="&#x169;" horiz-adv-x="1340" 
d="M1202 1113v-1113h-344v180h-19q-82 -206 -316 -206q-179 0 -287 110.5t-108 301.5v727h353v-640q0 -101 47.5 -154.5t133.5 -53.5q89 0 137.5 56.5t48.5 155.5v636h354zM818 1260q-49 0 -93.5 22t-70 48t-55.5 48t-55 22q-38 0 -60 -36t-24 -100h-210q0 149 76.5 241
t200.5 92q40 0 76.5 -14.5t61.5 -35t47.5 -40.5t45 -34.5t43.5 -14.5q38 0 60 34t23 97h210q0 -147 -76 -238t-200 -91z" />
    <glyph glyph-name="Umacron" unicode="&#x16a;" horiz-adv-x="1586" 
d="M538 1443v-906q0 -126 66.5 -196.5t188.5 -70.5t188 70t66 197v906h367v-945q0 -243 -170 -390t-451 -147t-451.5 147t-170.5 390v945h367zM1184 1835v-198h-782v198h782z" />
    <glyph glyph-name="umacron" unicode="&#x16b;" horiz-adv-x="1340" 
d="M1202 1113v-1113h-344v180h-19q-82 -206 -316 -206q-179 0 -287 110.5t-108 301.5v727h353v-640q0 -101 47.5 -154.5t133.5 -53.5q89 0 137.5 56.5t48.5 155.5v636h354zM1049 1525v-198h-768v198h768z" />
    <glyph glyph-name="Ubreve" unicode="&#x16c;" horiz-adv-x="1586" 
d="M538 1443v-906q0 -126 66.5 -196.5t188.5 -70.5t188 70t66 197v906h367v-945q0 -243 -170 -390t-451 -147t-451.5 147t-170.5 390v945h367zM375 1932h236q2 -74 51 -117.5t131 -43.5t131 43.5t51 117.5h236q0 -157 -113.5 -254t-304.5 -97t-304.5 97t-113.5 254z" />
    <glyph glyph-name="ubreve" unicode="&#x16d;" horiz-adv-x="1340" 
d="M1202 1113v-1113h-344v180h-19q-82 -206 -316 -206q-179 0 -287 110.5t-108 301.5v727h353v-640q0 -101 47.5 -154.5t133.5 -53.5q89 0 137.5 56.5t48.5 155.5v636h354zM247 1620h236q2 -78 51 -123.5t131 -45.5t131 45.5t51 123.5h236q0 -160 -113 -260t-305 -100
t-305 100t-113 260z" />
    <glyph glyph-name="Uring" unicode="&#x16e;" horiz-adv-x="1586" 
d="M538 1443v-906q0 -126 66.5 -196.5t188.5 -70.5t188 70t66 197v906h367v-945q0 -243 -170 -390t-451 -147t-451.5 147t-170.5 390v945h367zM794 1543q-91 0 -150 57.5t-59 145.5q0 87 59 143t150 56q90 0 148.5 -56t58.5 -143q0 -88 -58.5 -145.5t-148.5 -57.5zM793 1655
q39 0 64.5 25.5t25.5 63.5t-26 63.5t-64 25.5t-64 -25.5t-26 -63.5t26 -63.5t64 -25.5z" />
    <glyph glyph-name="uring" unicode="&#x16f;" horiz-adv-x="1340" 
d="M1202 1113v-1113h-344v180h-19q-82 -206 -316 -206q-179 0 -287 110.5t-108 301.5v727h353v-640q0 -101 47.5 -154.5t133.5 -53.5q89 0 137.5 56.5t48.5 155.5v636h354zM666 1260q-110 0 -182 69t-72 176q0 106 71.5 174t182.5 68q110 0 180.5 -68t70.5 -174
q0 -107 -71 -176t-180 -69zM665 1407q43 0 70 27.5t27 69.5q0 41 -28 68.5t-69 27.5q-42 -1 -69.5 -28t-27.5 -68q0 -43 27.5 -70t69.5 -27z" />
    <glyph glyph-name="Uhungarumlaut" unicode="&#x170;" horiz-adv-x="1586" 
d="M538 1443v-906q0 -126 66.5 -196.5t188.5 -70.5t188 70t66 197v906h367v-945q0 -243 -170 -390t-451 -147t-451.5 147t-170.5 390v945h367zM1137 1596h-265l221 326h293zM688 1596h-265l220 326h294z" />
    <glyph glyph-name="uhungarumlaut" unicode="&#x171;" horiz-adv-x="1340" 
d="M1202 1113v-1113h-344v180h-19q-82 -206 -316 -206q-179 0 -287 110.5t-108 301.5v727h353v-640q0 -101 47.5 -154.5t133.5 -53.5q89 0 137.5 56.5t48.5 155.5v636h354zM749 1288l191 359h284l-221 -359h-254zM294 1288l191 359h284l-221 -359h-254z" />
    <glyph glyph-name="Uogonek" unicode="&#x172;" horiz-adv-x="1585" 
d="M1073 -479q-130 0 -210.5 62.5t-80.5 160.5q0 69 39 127.5t92 87.5v19q-49 -17 -120 -17q-280 0 -451 146.5t-171 390.5v945h367v-906q0 -127 67 -197t188 -70t187.5 70t66.5 197v906h367v-945q0 -262 -234 -459q-143 -118 -143 -221q0 -47 31.5 -75t89.5 -28q51 0 71 8
v-179q-59 -23 -156 -23z" />
    <glyph glyph-name="uogonek" unicode="&#x173;" horiz-adv-x="1340" 
d="M1151 -456q-57 -23 -156 -23q-129 0 -210 64.5t-81 166.5q0 71 43.5 136t110.5 98v194h-19q-82 -206 -316 -206q-179 0 -287 110.5t-108 301.5v727h353v-640q0 -101 47.5 -154.5t133.5 -53.5q89 0 137.5 56.5t48.5 155.5v636h354v-1113l-49 -7q-81 -16 -137 -67.5
t-56 -115.5q0 -44 30.5 -69.5t90.5 -25.5q50 0 70 8v-179z" />
    <glyph glyph-name="Wcircumflex" unicode="&#x174;" horiz-adv-x="2112" 
d="M1046 884l-237 -884h-346l-377 1443h381l192 -957h18l231 957h294l239 -957h18l189 957h378l-377 -1443h-344l-241 884h-18zM891 1946h330l275 -350h-298l-132 190h-20l-132 -190h-298z" />
    <glyph glyph-name="wcircumflex" unicode="&#x175;" horiz-adv-x="1814" 
d="M1756 1113l-288 -1113h-381l-174 733h-19l-172 -733h-375l-290 1113h358l139 -763h19l168 763h337l170 -763h19l139 763h350zM1079 1619l271 -359h-297l-134 202h-19l-133 -202h-297l271 359h338z" />
    <glyph glyph-name="Ycircumflex" unicode="&#x176;" horiz-adv-x="1508" 
d="M937 0h-366v496l-498 947h391l281 -589h19l279 589h391l-497 -947v-496zM590 1946h330l275 -350h-298l-132 190h-20l-132 -190h-298z" />
    <glyph glyph-name="ycircumflex" unicode="&#x177;" horiz-adv-x="1282" 
d="M298 -405q-124 0 -129 1v269q10 -2 62 -2q176 0 194 97l5 31l-380 1122h391l199 -816h19l199 816h374l-358 -1111q-71 -222 -203.5 -314.5t-372.5 -92.5zM819 1619l271 -359h-297l-134 202h-19l-133 -202h-297l271 359h338z" />
    <glyph glyph-name="Ydieresis" unicode="&#x178;" horiz-adv-x="1508" 
d="M937 0h-366v496l-498 947h391l281 -589h19l279 589h391l-497 -947v-496zM504 1581q-76 0 -124.5 46t-48.5 118t48.5 118t124.5 46t124.5 -46t48.5 -118t-48.5 -118t-124.5 -46zM1006 1581q-76 0 -124.5 46t-48.5 118t48.5 118t124.5 46t125 -46t49 -118t-49 -118
t-125 -46z" />
    <glyph glyph-name="Zacute" unicode="&#x179;" horiz-adv-x="1399" 
d="M130 0v233l677 896v19h-666v295h1106v-233l-677 -896v-19h698v-295h-1138zM856 1596h-316l258 326h362z" />
    <glyph glyph-name="zacute" unicode="&#x17a;" horiz-adv-x="1190" 
d="M112 0v189l524 639v19h-512v266h936v-217l-477 -611v-19h495v-266h-966zM726 1288h-309l245 359h356z" />
    <glyph glyph-name="Zdotaccent" unicode="&#x17b;" horiz-adv-x="1399" 
d="M130 0v233l677 896v19h-666v295h1106v-233l-677 -896v-19h698v-295h-1138zM699 1581q-79 0 -128 48.5t-49 123.5t49 123.5t128 48.5q78 0 127 -48.5t49 -123.5t-49 -123.5t-127 -48.5z" />
    <glyph glyph-name="zdotaccent" unicode="&#x17c;" horiz-adv-x="1190" 
d="M112 0v189l524 639v19h-512v266h936v-217l-477 -611v-19h495v-266h-966zM593 1274q-79 0 -128.5 49t-49.5 124q0 76 49.5 125t128.5 49t128.5 -49t49.5 -125q0 -75 -49.5 -124t-128.5 -49z" />
    <glyph glyph-name="Zcaron" unicode="&#x17d;" horiz-adv-x="1399" 
d="M130 0v233l677 896v19h-666v295h1106v-233l-677 -896v-19h698v-295h-1138zM548 1596l-271 326h280l131 -173h22l131 173h280l-271 -326h-302z" />
    <glyph glyph-name="zcaron" unicode="&#x17e;" horiz-adv-x="1190" 
d="M112 0v189l524 639v19h-512v266h936v-217l-477 -611v-19h495v-266h-966zM762 1260h-338l-271 359h297l133 -202h19l134 202h297z" />
    <glyph glyph-name="uni04D8" unicode="&#x4d8;" horiz-adv-x="1574" 
d="M787 -39q-213 0 -368 93t-233 256.5t-79 380.5l4 121h969v11q1 157 -86.5 258.5t-222.5 101.5q-213 0 -281 -180h-370q50 222 225.5 350.5t425.5 128.5q313 0 502 -208.5t189 -553.5q0 -342 -186.5 -550.5t-488.5 -208.5zM788 260q115 0 196 82.5t94 216.5h-589
q10 -136 91 -217.5t208 -81.5z" />
    <glyph glyph-name="uni04D8" unicode="&#x18f;" horiz-adv-x="1574" 
d="M787 -39q-213 0 -368 93t-233 256.5t-79 380.5l4 121h969v11q1 157 -86.5 258.5t-222.5 101.5q-213 0 -281 -180h-370q50 222 225.5 350.5t425.5 128.5q313 0 502 -208.5t189 -553.5q0 -342 -186.5 -550.5t-488.5 -208.5zM788 260q115 0 196 82.5t94 216.5h-589
q10 -136 91 -217.5t208 -81.5z" />
    <glyph glyph-name="florin" unicode="&#x192;" horiz-adv-x="1461" 
d="M1331 1443v-279q-59 16 -157 16q-188 0 -217 -177l-21 -132h339v-245h-378l-35 -218q-37 -222 -165 -327t-359 -105q-130 0 -216 21v277q79 -22 167 -22q85 0 138.5 44t66.5 128l32 202h-307v245h346l28 173q67 412 542 412q115 0 196 -13z" />
    <glyph glyph-name="Ohorn" unicode="&#x1a0;" horiz-adv-x="1698" 
d="M814 -39q-328 0 -520 204.5t-192 556.5q0 351 193 555.5t519 204.5q96 0 228 -28t212 -28q108 0 108 88v174h269v-251q0 -108 -56.5 -166t-163.5 -58h-62v-18q77 -62 126 -192t49 -281q0 -352 -192 -556.5t-518 -204.5zM814 265q153 0 245 124t92 333q0 208 -92.5 332
t-244.5 124q-153 0 -245.5 -124t-92.5 -332q0 -209 92 -333t246 -124z" />
    <glyph glyph-name="ohorn" unicode="&#x1a1;" horiz-adv-x="1428" 
d="M650 244q97 0 150.5 82t53.5 231q0 146 -54 229t-150 83t-150 -83t-54 -229q0 -149 53.5 -231t150.5 -82zM1217 557q0 -275 -149.5 -429t-417.5 -154q-267 0 -417 154t-150 429q0 270 152 426t415 156q82 0 170.5 -21.5t133.5 -21.5q60 0 85.5 19t25.5 63v149h269v-237
q0 -204 -200 -204h-41v-17q53 -36 88.5 -125.5t35.5 -186.5z" />
    <glyph glyph-name="Uhorn" unicode="&#x1af;" horiz-adv-x="1798" 
d="M793 -39q-281 0 -451.5 147t-170.5 390v945h367v-906q0 -127 67 -197t188 -70t187.5 70t66.5 197v906h382q74 0 74 71v194h269v-266q0 -108 -64 -167.5t-176 -59.5h-118v-717q0 -243 -170 -390t-451 -147z" />
    <glyph glyph-name="uhorn" unicode="&#x1b0;" horiz-adv-x="1609" 
d="M839 180q-41 -105 -118.5 -155.5t-197.5 -50.5q-181 0 -288 112t-107 300v727h353v-640q0 -100 47 -154t134 -54q88 0 137 56t49 156v636h368q35 0 54.5 18.5t19.5 52.5v162h269v-234q0 -108 -64.5 -167.5t-176.5 -59.5h-116v-885h-344v180h-19z" />
    <glyph glyph-name="uni01C4" unicode="&#x1c4;" horiz-adv-x="2967" 
d="M170 1444h606q322 0 498.5 -185t176.5 -523q0 -355 -174.5 -545.5t-500.5 -190.5h-606v1444zM537 1149v-854h173q179 0 273 110t94 324q0 201 -96.5 310.5t-270.5 109.5h-173zM1698 0v233l677 896v19h-666v295h1106v-233l-677 -896v-19h698v-295h-1138zM2116 1596
l-271 326h280l131 -173h22l131 173h280l-271 -326h-302z" />
    <glyph glyph-name="uni01C5" unicode="&#x1c5;" horiz-adv-x="2758" 
d="M170 1444h606q322 0 498.5 -185t176.5 -523q0 -355 -174.5 -545.5t-500.5 -190.5h-606v1444zM537 1149v-854h173q179 0 273 110t94 324q0 201 -96.5 310.5t-270.5 109.5h-173zM1680 0v189l524 639v19h-512v266h936v-217l-477 -611v-19h495v-266h-966zM2330 1260h-338
l-271 359h297l133 -202h19l134 202h297z" />
    <glyph glyph-name="uni01C6" unicode="&#x1c6;" horiz-adv-x="2577" 
d="M530 -17q-209 0 -328 153.5t-119 422.5q0 266 119.5 418.5t327.5 152.5q112 0 197.5 -52t126.5 -144h19v596h354v-1530h-345v174h-19q-41 -90 -129 -140.5t-204 -50.5zM660 852q-100 0 -157 -78.5t-57 -216.5q0 -139 56.5 -217.5t157.5 -78.5t158 78.5t57 216.5
t-57.5 217t-157.5 79zM1500 0v189l524 639v19h-512v266h936v-217l-477 -611v-19h495v-266h-966zM2150 1260h-338l-271 359h297l133 -202h19l134 202h297z" />
    <glyph glyph-name="uni01C7" unicode="&#x1c7;" horiz-adv-x="2539" 
d="M1150 303v-303h-980v1443h367v-1140h613zM1309 458h352q1 -85 48 -135.5t126 -50.5q81 0 123.5 50t42.5 146v975h367v-978q0 -241 -139.5 -372.5t-387.5 -131.5q-244 0 -388 133.5t-144 363.5z" />
    <glyph glyph-name="uni01C8" unicode="&#x1c8;" horiz-adv-x="1879" 
d="M1150 303v-303h-980v1443h367v-1140h613zM1731 1113v-1140q0 -170 -109 -260.5t-313 -90.5q-55 0 -103 5v253q18 -2 42 -2q69 0 99 25.5t30 82.5v1127h354zM1554 1242q-92 0 -145.5 43t-53.5 114q0 72 53.5 115t145.5 43q93 0 146.5 -43t53.5 -115q0 -71 -53.5 -114
t-146.5 -43z" />
    <glyph glyph-name="uni01C9" unicode="&#x1c9;" horiz-adv-x="1280" 
d="M148 0v1530h353v-1530h-353zM1132 1113v-1140q0 -170 -109 -260.5t-313 -90.5q-56 0 -103 5v253q18 -2 42 -2q69 0 99 25.5t30 82.5v1127h354zM955 1242q-92 0 -145.5 43t-53.5 114q0 72 53.5 115t145.5 43q93 0 146.5 -43t53.5 -115q0 -71 -53.5 -114t-146.5 -43z" />
    <glyph glyph-name="uni01CA" unicode="&#x1ca;" horiz-adv-x="2900" 
d="M518 0h-348v1443h293l601 -812h19v812h348v-1443h-291l-603 820h-19v-820zM1671 458h352q1 -85 48 -135.5t126 -50.5q81 0 123.5 50t42.5 146v975h367v-978q0 -241 -139.5 -372.5t-387.5 -131.5q-244 0 -388 133.5t-144 363.5z" />
    <glyph glyph-name="uni01CB" unicode="&#x1cb;" horiz-adv-x="2241" 
d="M518 0h-348v1443h293l601 -812h19v812h348v-1443h-291l-603 820h-19v-820zM2093 1113v-1140q0 -170 -109 -260.5t-313 -90.5q-55 0 -103 5v253q18 -2 42 -2q69 0 99 25.5t30 82.5v1127h354zM1916 1242q-92 0 -145.5 43t-53.5 114q0 72 53.5 115t145.5 43q93 0 146.5 -43
t53.5 -115q0 -71 -53.5 -114t-146.5 -43z" />
    <glyph glyph-name="uni01CC" unicode="&#x1cc;" horiz-adv-x="1963" 
d="M138 0v1113h344v-181h19q37 96 122 151.5t204 55.5q184 0 280.5 -109t96.5 -311v-719h-354v640q0 210 -175 210q-85 0 -134.5 -58.5t-49.5 -155.5v-636h-353zM1824 1113v-1140q0 -170 -109 -260.5t-313 -90.5q-56 0 -103 5v253q18 -2 42 -2q69 0 99 25.5t30 82.5v1127
h354zM1647 1242q-92 0 -145.5 43t-53.5 114q0 72 53.5 115t145.5 43q93 0 146.5 -43t53.5 -115q0 -71 -53.5 -114t-146.5 -43z" />
    <glyph glyph-name="Acaron" unicode="&#x1cd;" horiz-adv-x="1563" 
d="M1091 0l-90 317h-471l-93 -317h-364l484 1443h449l485 -1443h-400zM758 1118l-158 -537h332l-155 537h-19zM631 1596l-271 326h280l131 -173h22l131 173h280l-271 -326h-302z" />
    <glyph glyph-name="acaron" unicode="&#x1ce;" horiz-adv-x="1248" 
d="M570 230q84 0 141.5 49t57.5 121v73l-187 -12q-78 -6 -119 -36t-41 -80q0 -53 40.5 -84t107.5 -31zM441 -17q-161 0 -260.5 92.5t-99.5 244.5t114.5 238.5t330.5 99.5l243 14v87q0 57 -40.5 88.5t-113.5 31.5q-141 0 -176 -90h-318q12 162 150 256t364 94q230 0 356 -100
t126 -280v-759h-344v138h-19q-37 -71 -122 -113t-191 -42zM805 1260h-338l-271 359h297l133 -202h19l134 202h297z" />
    <glyph glyph-name="Icaron" unicode="&#x1cf;" horiz-adv-x="707" 
d="M537 0h-367v1443h367v-1443zM202 1596l-271 326h280l131 -173h22l131 173h280l-271 -326h-302z" />
    <glyph glyph-name="icaron" unicode="&#x1d0;" horiz-adv-x="631" 
d="M138 0v1113h354v-1113h-354zM484 1260h-338l-271 359h297l133 -202h19l134 202h297z" />
    <glyph glyph-name="Ocaron" unicode="&#x1d1;" horiz-adv-x="1626" 
d="M814 1482q326 0 518 -204.5t192 -555.5q0 -352 -192 -556.5t-518 -204.5q-328 0 -520 204.5t-192 556.5q0 351 193 555.5t519 204.5zM814 1178q-153 0 -245.5 -124t-92.5 -332q0 -209 92 -333t246 -124q153 0 245 124t92 333q0 208 -92.5 332t-244.5 124zM663 1596
l-271 326h280l131 -173h22l131 173h280l-271 -326h-302z" />
    <glyph glyph-name="ocaron" unicode="&#x1d2;" horiz-adv-x="1300" 
d="M650 -26q-267 0 -417 154t-150 429q0 270 152 426t415 156q264 0 415.5 -155.5t151.5 -426.5q0 -275 -149.5 -429t-417.5 -154zM650 244q97 0 150.5 82t53.5 231q0 146 -54 229t-150 83t-150 -83t-54 -229q0 -149 53.5 -231t150.5 -82zM819 1260h-338l-271 359h297
l133 -202h19l134 202h297z" />
    <glyph glyph-name="Ucaron" unicode="&#x1d3;" horiz-adv-x="1586" 
d="M538 1443v-906q0 -126 66.5 -196.5t188.5 -70.5t188 70t66 197v906h367v-945q0 -243 -170 -390t-451 -147t-451.5 147t-170.5 390v945h367zM642 1596l-271 326h280l131 -173h22l131 173h280l-271 -326h-302z" />
    <glyph glyph-name="ucaron" unicode="&#x1d4;" horiz-adv-x="1340" 
d="M1202 1113v-1113h-344v180h-19q-82 -206 -316 -206q-179 0 -287 110.5t-108 301.5v727h353v-640q0 -101 47.5 -154.5t133.5 -53.5q89 0 137.5 56.5t48.5 155.5v636h354zM834 1260h-338l-271 359h297l133 -202h19l134 202h297z" />
    <glyph glyph-name="Udieresismacron" unicode="&#x1d5;" horiz-adv-x="1586" 
d="M538 1443v-906q0 -126 66.5 -196.5t188.5 -70.5t188 70t66 197v906h367v-945q0 -243 -170 -390t-451 -147t-451.5 147t-170.5 390v945h367zM542 1907q76 0 124 -45.5t48 -117.5t-48 -117.5t-124 -45.5t-124.5 45.5t-48.5 117.5t48.5 117.5t124.5 45.5zM402 2204h782v-183
h-782v183zM1044 1907q76 0 124.5 -45.5t48.5 -117.5t-48.5 -117.5t-124.5 -45.5t-124 45.5t-48 117.5t48 117.5t124 45.5z" />
    <glyph glyph-name="udieresismacron" unicode="&#x1d6;" horiz-adv-x="1340" 
d="M1202 1113v-1113h-344v180h-19q-82 -206 -316 -206q-179 0 -287 110.5t-108 301.5v727h353v-640q0 -101 47.5 -154.5t133.5 -53.5q89 0 137.5 56.5t48.5 155.5v636h354zM434 1260q-71 0 -116.5 44.5t-45.5 110.5q0 68 45.5 112.5t116.5 44.5t116 -44.5t45 -112.5
q0 -66 -45 -110.5t-116 -44.5zM896 1260q-71 0 -116 44.5t-45 110.5q0 68 45 112.5t116 44.5t116.5 -44.5t45.5 -112.5q0 -66 -45.5 -110.5t-116.5 -44.5zM1049 1897v-198h-768v198h768z" />
    <glyph glyph-name="Udieresisacute" unicode="&#x1d7;" horiz-adv-x="1586" 
d="M538 1443v-906q0 -126 66.5 -196.5t188.5 -70.5t188 70t66 197v906h367v-945q0 -243 -170 -390t-451 -147t-451.5 147t-170.5 390v945h367zM656 1962l132 250h327l-185 -250h-274zM542 1581q-76 0 -125 46t-49 118t49 118t125 46t124.5 -46t48.5 -118t-48.5 -118
t-124.5 -46zM1044 1581q-76 0 -124.5 46t-48.5 118t48.5 118t124.5 46t125 -46t49 -118t-49 -118t-125 -46z" />
    <glyph glyph-name="udieresisacute" unicode="&#x1d8;" horiz-adv-x="1340" 
d="M1202 1113v-1113h-344v180h-19q-82 -206 -316 -206q-179 0 -287 110.5t-108 301.5v727h353v-640q0 -101 47.5 -154.5t133.5 -53.5q89 0 137.5 56.5t48.5 155.5v636h354zM523 1666l215 326h324l-262 -326h-277zM414 1264q-76 0 -124.5 46t-48.5 118t48.5 118t124.5 46
t124.5 -46t48.5 -118t-48.5 -118t-124.5 -46zM916 1264q-76 0 -124.5 46t-48.5 118t48.5 118t124.5 46t125 -46t49 -118t-49 -118t-125 -46z" />
    <glyph glyph-name="Udieresiscaron" unicode="&#x1d9;" horiz-adv-x="1586" 
d="M538 1443v-906q0 -126 66.5 -196.5t188.5 -70.5t188 70t66 197v906h367v-945q0 -243 -170 -390t-451 -147t-451.5 147t-170.5 390v945h367zM638 1929l-269 326h285l128 -178h22l128 178h285l-269 -326h-310zM542 1870q75 0 122.5 -44t47.5 -111q0 -68 -47.5 -111.5
t-122.5 -43.5t-122.5 43.5t-47.5 111.5q0 67 47.5 111t122.5 44zM1044 1870q75 0 122.5 -44t47.5 -111q0 -68 -47.5 -111.5t-122.5 -43.5t-122.5 43.5t-47.5 111.5q0 67 47.5 111t122.5 44z" />
    <glyph glyph-name="udieresiscaron" unicode="&#x1da;" horiz-adv-x="1340" 
d="M1202 1113v-1113h-344v180h-19q-82 -206 -316 -206q-179 0 -287 110.5t-108 301.5v727h353v-640q0 -101 47.5 -154.5t133.5 -53.5q89 0 137.5 56.5t48.5 155.5v636h354zM434 1260q-71 0 -116.5 44.5t-45.5 110.5q0 68 45.5 112.5t116.5 44.5t116 -44.5t45 -112.5
q0 -66 -45 -110.5t-116 -44.5zM896 1260q-71 0 -116 44.5t-45 110.5q0 68 45 112.5t116 44.5t116.5 -44.5t45.5 -112.5q0 -66 -45.5 -110.5t-116.5 -44.5zM820 1641h-310l-267 356h279l133 -208h20l133 208h279z" />
    <glyph glyph-name="Udieresisgrave" unicode="&#x1db;" horiz-adv-x="1586" 
d="M538 1443v-906q0 -126 66.5 -196.5t188.5 -70.5t188 70t66 197v906h367v-945q0 -243 -170 -390t-451 -147t-451.5 147t-170.5 390v945h367zM934 1962h-274l-184 250h326zM542 1581q-76 0 -125 46t-49 118t49 118t125 46t124.5 -46t48.5 -118t-48.5 -118t-124.5 -46z
M1044 1581q-76 0 -124.5 46t-48.5 118t48.5 118t124.5 46t125 -46t49 -118t-49 -118t-125 -46z" />
    <glyph glyph-name="udieresisgrave" unicode="&#x1dc;" horiz-adv-x="1340" 
d="M1202 1113v-1113h-344v180h-19q-82 -206 -316 -206q-179 0 -287 110.5t-108 301.5v727h353v-640q0 -101 47.5 -154.5t133.5 -53.5q89 0 137.5 56.5t48.5 155.5v636h354zM807 1666h-277l-262 326h324zM414 1269q-76 0 -124.5 46t-48.5 118t48.5 118t124.5 46t124.5 -46
t48.5 -118t-48.5 -118t-124.5 -46zM916 1269q-76 0 -124.5 46t-48.5 118t48.5 118t124.5 46t125 -46t49 -118t-49 -118t-125 -46z" />
    <glyph glyph-name="uni04D9" unicode="&#x4d9;" horiz-adv-x="1282" 
d="M635 225q87 0 144 58.5t61 155.5h-409q2 -100 57 -157t147 -57zM425 785h-323q37 162 178.5 258t350.5 96q259 0 409 -153t150 -416q0 -281 -145.5 -438.5t-408.5 -157.5q-264 0 -405.5 156t-141.5 446l3 66h749v12q0 108 -59 171t-160 63q-71 0 -123.5 -27t-73.5 -76z
" />
    <glyph glyph-name="uni04D9" unicode="&#x259;" horiz-adv-x="1282" 
d="M635 225q87 0 144 58.5t61 155.5h-409q2 -100 57 -157t147 -57zM425 785h-323q37 162 178.5 258t350.5 96q259 0 409 -153t150 -416q0 -281 -145.5 -438.5t-408.5 -157.5q-264 0 -405.5 156t-141.5 446l3 66h749v12q0 108 -59 171t-160 63q-71 0 -123.5 -27t-73.5 -76z
" />
    <glyph glyph-name="uni04D9" unicode="&#x1dd;" horiz-adv-x="1282" 
d="M635 225q87 0 144 58.5t61 155.5h-409q2 -100 57 -157t147 -57zM425 785h-323q37 162 178.5 258t350.5 96q259 0 409 -153t150 -416q0 -281 -145.5 -438.5t-408.5 -157.5q-264 0 -405.5 156t-141.5 446l3 66h749v12q0 108 -59 171t-160 63q-71 0 -123.5 -27t-73.5 -76z
" />
    <glyph glyph-name="Adieresismacron" unicode="&#x1de;" horiz-adv-x="1563" 
d="M1091 0l-90 317h-471l-93 -317h-364l484 1443h449l485 -1443h-400zM758 1118l-158 -537h332l-155 537h-19zM531 1907q76 0 124 -45.5t48 -117.5t-48 -117.5t-124 -45.5t-124.5 45.5t-48.5 117.5t48.5 117.5t124.5 45.5zM391 2204h782v-183h-782v183zM1033 1907
q76 0 124.5 -45.5t48.5 -117.5t-48.5 -117.5t-124.5 -45.5t-124 45.5t-48 117.5t48 117.5t124 45.5z" />
    <glyph glyph-name="adieresismacron" unicode="&#x1df;" horiz-adv-x="1248" 
d="M570 230q84 0 141.5 49t57.5 121v73l-187 -12q-78 -6 -119 -36t-41 -80q0 -53 40.5 -84t107.5 -31zM441 -17q-161 0 -260.5 92.5t-99.5 244.5t114.5 238.5t330.5 99.5l243 14v87q0 57 -40.5 88.5t-113.5 31.5q-141 0 -176 -90h-318q12 162 150 256t364 94q230 0 356 -100
t126 -280v-759h-344v138h-19q-37 -71 -122 -113t-191 -42zM405 1260q-71 0 -116.5 44.5t-45.5 110.5q0 68 45.5 112.5t116.5 44.5t116 -44.5t45 -112.5q0 -66 -45 -110.5t-116 -44.5zM867 1260q-71 0 -116 44.5t-45 110.5q0 68 45 112.5t116 44.5t116.5 -44.5t45.5 -112.5
q0 -66 -45.5 -110.5t-116.5 -44.5zM1020 1897v-198h-768v198h768z" />
    <glyph glyph-name="Adotmacron" unicode="&#x1e0;" horiz-adv-x="1563" 
d="M1091 0l-90 317h-471l-93 -317h-364l484 1443h449l485 -1443h-400zM758 1118l-158 -537h332l-155 537h-19zM782 1575q-78 0 -127 45.5t-49 115.5q0 69 49 114.5t127 45.5t127 -45.5t49 -114.5q0 -70 -49 -115.5t-127 -45.5zM1173 2204v-183h-782v183h782z" />
    <glyph glyph-name="adotmacron" unicode="&#x1e1;" horiz-adv-x="1248" 
d="M570 230q84 0 141.5 49t57.5 121v73l-187 -12q-78 -6 -119 -36t-41 -80q0 -53 40.5 -84t107.5 -31zM441 -17q-161 0 -260.5 92.5t-99.5 244.5t114.5 238.5t330.5 99.5l243 14v87q0 57 -40.5 88.5t-113.5 31.5q-141 0 -176 -90h-318q12 162 150 256t364 94q230 0 356 -100
t126 -280v-759h-344v138h-19q-37 -71 -122 -113t-191 -42zM636 1260q-74 0 -120.5 45.5t-46.5 114.5q0 71 46.5 117.5t120.5 46.5t120.5 -46.5t46.5 -117.5q0 -69 -46.5 -114.5t-120.5 -45.5zM1020 1897v-198h-768v198h768z" />
    <glyph glyph-name="AEmacron" unicode="&#x1e2;" horiz-adv-x="2108" 
d="M872 1167l-217 -575h337v575h-120zM992 0v327h-432l-125 -327h-362l566 1443h1326v-295h-646v-290h609v-270h-609v-293h646v-295h-973zM1958 1835v-198h-782v198h782z" />
    </font>
</defs>
</svg>
